<?xml version="1.0" standalone="no"?>
<!DOCTYPE svg PUBLIC "-//W3C//DTD SVG 1.1//EN" "http://www.w3.org/Graphics/SVG/1.1/DTD/svg11.dtd" >
<svg xmlns="http://www.w3.org/2000/svg" xmlns:xlink="http://www.w3.org/1999/xlink" version="1.1">
<metadata>
Created by FontForge 20170812 at Fri Aug  5 16:19:00 2022
 By www-data
</metadata>
<defs>
<font id="ChubbyAndSweetRegular" horiz-adv-x="0" >
  <font-face 
    font-family="Chubby And Sweet"
    font-weight="400"
    font-stretch="normal"
    units-per-em="1000"
    panose-1="0 0 0 0 0 0 0 0 0 0"
    ascent="800"
    descent="-200"
    x-height="307.892"
    cap-height="824.285"
    bbox="-112 -654.983 1545.64 1085.8"
    underline-thickness="50"
    underline-position="-100"
    unicode-range="U+000A-20AC"
  />
<missing-glyph horiz-adv-x="527" 
d="M50 700h427v-700h-427v700zM78 680l185 -309l186 309h-371zM251 350l-180 300v-601zM264 329l-185 -308h370zM276 350l181 -303v605z" />
    <glyph glyph-name=".notdef" horiz-adv-x="527" 
d="M50 700h427v-700h-427v700zM78 680l185 -309l186 309h-371zM251 350l-180 300v-601zM264 329l-185 -308h370zM276 350l181 -303v605z" />
    <glyph glyph-name=".null" 
 />
    <glyph glyph-name=".null" 
 />
    <glyph glyph-name="LF" unicode="&#xa;" 
 />
    <glyph glyph-name="controlCR" unicode="&#xd;" 
 />
    <glyph glyph-name="space" unicode=" " horiz-adv-x="218" 
 />
    <glyph glyph-name="exclam" unicode="!" horiz-adv-x="208" 
d="M96.7871 787.663c2.91113 38.7363 61.9434 39.6523 61.0352 0c-6.43066 -280.533 -16.0234 -562.755 -35.875 -842.673c-3.24805 -45.7393 -73.1953 -46.6553 -71.9287 0c7.61816 280.697 25.7305 562.676 46.7686 842.673zM77.5596 -140.015
c15.2295 7.77637 33.1553 1.15723 38.292 -15.582c7.23242 -23.5205 3.40527 -53.6445 2.87598 -77.9307c-0.901367 -41.3545 -65.5049 -41.2969 -64.2168 0.000976562c0.500977 16.0029 0.987305 32.0557 2.33203 48.0156c1.48828 17.626 3.06934 36.4824 20.7168 45.4961z
" />
    <glyph glyph-name="quotedbl" unicode="&#x22;" horiz-adv-x="329" 
d="M124.827 636.344c23.7354 31.3398 77.3223 2.02441 53.9941 -31.5684c-27.5557 -39.6807 -49.5811 -81.2432 -64.4385 -127.298c-12.8047 -39.7021 -75.8057 -22.376 -62.5645 17.2471c16.9824 50.8115 40.6104 98.8408 73.0088 141.619zM260.587 634.42
c20.502 -3.82715 24.0146 -30.5674 11.6172 -43.9941c-13.5059 -14.6221 -19.8867 -44.0234 -26.7324 -62.9658c-8.21973 -22.7344 -14.7871 -45.9688 -20.4814 -69.4541c-9.53613 -39.373 -70.1553 -22.5977 -60.627 16.7109
c8.77051 36.1895 20.5312 71.4922 35.8828 105.45c12.5615 27.7773 24.4512 60.9629 60.3408 54.2529z" />
    <glyph glyph-name="quotedbl" unicode="&#x201d;" horiz-adv-x="329" 
d="M124.827 636.344c23.7354 31.3398 77.3223 2.02441 53.9941 -31.5684c-27.5557 -39.6807 -49.5811 -81.2432 -64.4385 -127.298c-12.8047 -39.7021 -75.8057 -22.376 -62.5645 17.2471c16.9824 50.8115 40.6104 98.8408 73.0088 141.619zM260.587 634.42
c20.502 -3.82715 24.0146 -30.5674 11.6172 -43.9941c-13.5059 -14.6221 -19.8867 -44.0234 -26.7324 -62.9658c-8.21973 -22.7344 -14.7871 -45.9688 -20.4814 -69.4541c-9.53613 -39.373 -70.1553 -22.5977 -60.627 16.7109
c8.77051 36.1895 20.5312 71.4922 35.8828 105.45c12.5615 27.7773 24.4512 60.9629 60.3408 54.2529z" />
    <glyph glyph-name="quotedbl" unicode="&#x201c;" horiz-adv-x="329" 
d="M124.827 636.344c23.7354 31.3398 77.3223 2.02441 53.9941 -31.5684c-27.5557 -39.6807 -49.5811 -81.2432 -64.4385 -127.298c-12.8047 -39.7021 -75.8057 -22.376 -62.5645 17.2471c16.9824 50.8115 40.6104 98.8408 73.0088 141.619zM260.587 634.42
c20.502 -3.82715 24.0146 -30.5674 11.6172 -43.9941c-13.5059 -14.6221 -19.8867 -44.0234 -26.7324 -62.9658c-8.21973 -22.7344 -14.7871 -45.9688 -20.4814 -69.4541c-9.53613 -39.373 -70.1553 -22.5977 -60.627 16.7109
c8.77051 36.1895 20.5312 71.4922 35.8828 105.45c12.5615 27.7773 24.4512 60.9629 60.3408 54.2529z" />
    <glyph glyph-name="numbersign" unicode="#" horiz-adv-x="924" 
d="M864.843 390.255c27.9561 -30.9248 -16.2529 -75.8574 -45.9902 -45.999c-21.2393 21.3242 -66.958 14.4785 -94.5273 13.4629c-16.1455 -0.59375 -32.2695 -1.70215 -48.3652 -3.09668c-6.05859 -18.9502 -11.96 -37.9424 -17.7109 -56.999
c40.5752 3.55566 56.8135 -58.9805 15.3584 -64.7461c-11.9102 -1.65234 -23.8066 -3.39746 -35.6885 -5.18555c-1.40234 -5.03613 -2.89062 -10.0361 -4.27148 -15.0869c-21.1602 -77.4082 -39.9951 -155.503 -56.4199 -234.056
c-15.5879 -74.54 -35.1602 -152.199 -34.4092 -228.692c0.393555 -40.0957 -60.5693 -39.7451 -62.0361 0c-2.96191 80.1123 15.7021 161.599 30.8174 239.865c14.6289 75.7705 31.7617 151.012 51.3057 225.666c-59.4102 -10.4941 -118.441 -22.7549 -177.008 -36.9766
c-28.2207 -116.331 -49.2734 -234.186 -62.4434 -352.184c-4.77148 -42.7852 -72.5439 -42.6211 -67.2285 0c14.0713 112.911 33.5146 224.135 58.3018 333.812c-50.9619 -13.8496 -101.552 -29.1865 -151.712 -46.1543
c-35.6748 -12.0684 -50.5322 43.8652 -15.4658 56.0977c60.4541 21.0957 121.531 40.3105 183.159 57.4932c5.80859 23.4131 11.8389 46.7627 18.1621 70.0264c-89.3545 -23.2773 -177.057 -52.5215 -262.706 -87.2373c-36.0391 -14.6143 -51.2119 43.4863 -16.002 58.0361
c96.916 40.0527 196.564 73.0166 298.23 98.3047c41.1689 139.279 91.7373 275.983 152.32 410.212c19.1289 42.3848 82.4092 5.59375 62.6865 -36.6406c-53.6943 -114.993 -100.356 -234.379 -139.407 -356.375c11.5244 2.40332 23.0342 4.86426 34.6084 7.06738
c46.999 8.95605 94.4199 16.4883 142.005 22.2607c29.9951 93.4111 63.7812 185.613 102.139 275.862c15.5234 36.5264 78.4814 9.59375 64.0459 -26.9971c-31.4688 -79.7617 -61.3271 -160.003 -88.8115 -241.053c54.0518 4.7002 127.998 12.5264 167.063 -30.6885z
M581.806 285.146c5.74414 20.3945 11.6748 40.7471 17.7695 61.042c-52.3213 -6.70996 -104.37 -15.502 -155.99 -26.332c-6.97461 -1.4668 -13.8994 -3.09082 -20.8525 -4.62891c-6.68848 -22.7412 -13.1484 -45.5537 -19.2861 -68.4521
c58.9951 14.7793 118.47 27.6123 178.359 38.3711z" />
    <glyph glyph-name="dollar" unicode="$" horiz-adv-x="560" 
d="M398.709 234.193c81.708 -47.7715 152.608 -143.34 82.876 -233.081c-37.2695 -47.9717 -97.8818 -76.0068 -159.738 -82.6738c0.672852 -16.7109 1.33789 -33.4219 2.00293 -50.1396c1.69531 -42.4707 -62.7656 -41.7197 -65.5557 0
c-1.14453 17.126 -2.03125 34.2871 -3.04688 51.4268c-9.54297 1.45898 -18.9502 3.34082 -28.0566 5.93066c-83.2246 23.6357 -166.105 112.254 -112.59 200.214c17.9629 29.5225 58.3232 3.71289 45.168 -26.4033c-25.7812 -59.0098 38.6152 -101.337 91.7803 -114.299
c-4.02734 80.2842 -6.70996 160.704 -8.48438 241.182c-35.2744 15.1016 -70.3838 30.5459 -103.512 50.0537c-48.7725 28.7217 -95.4922 70.7275 -88.9326 132.634c6.10156 57.5576 56.2334 100.729 103.532 127.67c26.3818 15.0225 55.7041 26.7041 86.2139 34.3301
c0.185547 43.3652 0.457031 86.7158 0.886719 130.017c0.393555 39.6377 61.749 39.6094 61.5342 0c-0.214844 -40.167 -0.100586 -80.2988 0.185547 -120.423c63.8457 3.62695 127.87 -11.8389 177.552 -53.1074c34.1221 -28.335 -14.6289 -75.9775 -48.4863 -48.4863
c-34.3369 27.877 -83.0527 35.3955 -128.342 31.7188c1.03711 -77.3223 2.78223 -154.595 5.07129 -231.853c30.6104 -13.6494 60.9912 -27.7773 89.9414 -44.71zM124.902 404c-5.58008 -46.2334 80.6064 -78.8467 116.617 -94.9854
c-0.894531 62.9658 -1.33789 125.945 -1.33789 188.882c-45.7969 -14.9863 -109.671 -47.3486 -115.279 -93.8965zM434.509 53.4268c32.6484 67.708 -64.9688 114.974 -112.011 137.7c-3.67676 1.78125 -7.39648 3.45508 -11.0947 5.17871
c2.38184 -70.8984 5.05762 -141.805 7.85449 -212.739c46.2549 7.33203 96.0146 29.9727 115.251 69.8604z" />
    <glyph glyph-name="percent" unicode="%" horiz-adv-x="791" 
d="M135.96 202.238c-41.8125 3.0332 -61.2881 40.4902 -59.2637 78.6113c4.26367 80.127 62.7012 163.322 122.884 212.295c28.2637 22.999 71.4922 56.8135 109.671 55.4541c26.1748 -0.9375 42.1484 -20.6602 40.7246 -41.7842
c8.12598 -3.74805 15.043 -10.7373 18.7129 -21.4893c15.4727 -45.375 -11.3965 -90.9502 -35.4824 -128.234c-24.8232 -38.4287 -54.9971 -73.9814 -89.6992 -103.833c-29.2227 -25.1377 -66.5283 -53.9883 -107.547 -51.0195zM148.597 284.447
c-0.750977 -3.20508 -0.995117 -6.43164 -0.995117 -9.67969c9.2998 2.07422 18.7852 9.22754 26.2539 14.3428c20.8242 14.2568 39.5303 33.042 56.4912 51.5693c23.8281 26.0391 80.2842 87.4092 69.3105 125.609c-1.15137 4.0127 -1.6377 7.79004 -1.60156 11.3379
c-1.50977 -0.822266 -3.22656 -1.57324 -5.4082 -2.13867c-4.57812 -2.5752 -9.08496 -5.26465 -13.5127 -8.08984c-10.9521 -6.85352 -21.3535 -14.2363 -31.2471 -22.5557c-15.9668 -13.4199 -30.9248 -28.793 -43.916 -45.1172
c-25.4668 -31.9902 -49.2305 -74.2246 -55.375 -115.278zM694.203 623.825c21.1387 17.376 60.5967 -6.43457 41.2031 -31.8008c-49.6953 -65.0186 -109.979 -122.833 -165.604 -182.772c-54.3809 -58.6016 -107.925 -117.976 -160.046 -178.602
c-107.683 -125.266 -207.653 -256.712 -294.061 -397.637c-23.499 -38.3359 -83.8389 -3.25488 -60.3682 35.2881c85.5781 140.546 186.536 270.948 294.226 395.17c55.1611 63.624 112.368 125.467 170.326 186.544c55.9697 58.9805 111.431 122.125 174.324 173.81z
M455.546 158.52c67.1221 46.9697 171.306 59.5244 234.357 -2.1748c67.5576 -66.1055 24.6934 -165.375 -36.7559 -218.533c-52.4355 -45.3604 -154.967 -93.79 -214.849 -33.2852c-52.4502 53.001 -19.8945 136.555 16.0596 198.525
c-18.1553 11.6816 -18.8564 41.4473 1.1875 55.4678zM602.536 -12.8936c36.5977 29.4014 83.3818 95.2344 28.1211 130.415c-26.0742 16.6035 -56.4336 17.5977 -85.3057 10.3516c0.0712891 -5.6875 -1.44531 -11.8105 -5.06543 -18.1133
c-14.5078 -25.252 -30.4746 -50.4971 -41.4121 -77.5947c-6.78125 -16.7891 -21.8252 -54.9746 -10.7803 -71.9854c21.9756 -33.8574 93.5322 10.1299 114.442 26.9268z" />
    <glyph glyph-name="ampersand" unicode="&#x26;" horiz-adv-x="750" 
d="M650.005 242.32c10.7803 31.6045 56.291 18.8428 49.7959 -13.7275c-17.1973 -86.1855 -101.816 -149.974 -169.596 -198.003c-12.6904 -8.99219 -25.7812 -17.7051 -39.1797 -26.1035c5.96582 -5.72266 11.9961 -11.3457 18.1484 -16.8105
c34.2158 -30.3809 -16.1094 -80.3271 -50.1455 -50.1465c-11.1162 9.85742 -21.8682 20.1084 -32.3047 30.6602c-46.7559 -23.4424 -96.1221 -41.9053 -146.189 -52.457c-69.6758 -14.6787 -176.356 -15.0361 -217.754 56.0195
c-41.1973 70.7197 26.0742 150.281 76.3418 194.712c39.502 34.916 82.3301 65.8408 126.06 95.6787c-10.4873 54.2881 -11.8467 110.68 -1.98242 167.88c25.3232 146.841 156.677 325.786 324.585 240.459c76.5928 -38.9229 85.0771 -124.508 44.6523 -194.147
c-41.2549 -71.085 -115.266 -124.601 -180.513 -172.114c-34.8447 -25.374 -70.7197 -49.3174 -106.459 -73.4531c20.0439 -64.2393 55.0752 -124.179 99.0693 -176.671c4.26367 2.41797 8.49121 4.85059 12.6475 7.27539c38.7363 22.6553 75.3691 48.7158 109.162 78.2461
c32.7061 28.5859 69.2539 60.4619 83.6611 102.703zM334.154 422.317c-7.95508 -39.6162 -9.07031 -78.79 -4.63477 -116.961c74.6904 49.96 148.579 100.829 209.863 166.742c25.7881 27.7412 66.9424 80.9854 36.7402 118.935
c-22.1406 27.8203 -69.7979 31.3682 -101.767 25.0303c-82.4873 -16.3389 -125.494 -120.43 -140.202 -193.746zM200.312 -21.0742c60.1543 -3.38379 122.418 15.6289 179.618 41.8613c-40.7393 51.0547 -73.4092 107.89 -94.8701 168.444
c-19.8438 -14.0205 -39.4512 -28.3701 -58.5723 -43.3857c-33.0498 -25.9531 -68.7031 -53.959 -90.3994 -90.6133c-11.0098 -18.5996 -20.7168 -38.4365 -3.9707 -55.8555c15.251 -15.8662 47.8779 -19.3066 68.1943 -20.4512z" />
    <glyph glyph-name="quotesingle" unicode="'" horiz-adv-x="200" 
d="M89.3398 648.068c13.5342 36.9766 69.3477 22.7207 59.6621 -16.4453c-12.4043 -50.125 -25.9248 -99.5918 -35.4248 -150.418c-7.71191 -41.2188 -70.792 -23.7285 -62.8945 17.333c9.68555 50.3535 20.9951 101.294 38.6572 149.53z" />
    <glyph glyph-name="quotesingle" unicode="&#x2019;" horiz-adv-x="200" 
d="M89.3398 648.068c13.5342 36.9766 69.3477 22.7207 59.6621 -16.4453c-12.4043 -50.125 -25.9248 -99.5918 -35.4248 -150.418c-7.71191 -41.2188 -70.792 -23.7285 -62.8945 17.333c9.68555 50.3535 20.9951 101.294 38.6572 149.53z" />
    <glyph glyph-name="quotesingle" unicode="&#x2018;" horiz-adv-x="200" 
d="M89.3398 648.068c13.5342 36.9766 69.3477 22.7207 59.6621 -16.4453c-12.4043 -50.125 -25.9248 -99.5918 -35.4248 -150.418c-7.71191 -41.2188 -70.792 -23.7285 -62.8945 17.333c9.68555 50.3535 20.9951 101.294 38.6572 149.53z" />
    <glyph glyph-name="parenleft" unicode="(" horiz-adv-x="533" 
d="M442.613 -200.412c41.8701 10.5518 57.709 -50.1904 17.6494 -64.0254c-105.443 -36.4111 -227.146 -6.28027 -304.763 73.4893c-155.332 159.639 -113.005 420.55 -38.9443 608.051c39.1299 99.0625 92.3096 196.344 164.66 275.269
c25.5811 27.9062 179.211 155.64 186.343 51.9707c1.55957 -22.6553 -24.2148 -30.9463 -40.3965 -21.2393c-15.4229 -2.96875 -45.1963 -29.4941 -53.4297 -36.4258c-17.1182 -14.4072 -32.7627 -30.4736 -47.2773 -47.4844
c-34.1514 -40.0381 -62.4219 -85.4775 -87.7959 -131.461c-51.9131 -94.0977 -87.502 -196.544 -104.957 -302.616c-17.376 -105.594 -13.1699 -220.602 48.8086 -311.802c58.1152 -85.5137 161.612 -118.549 260.103 -93.7256z" />
    <glyph glyph-name="parenright" unicode=")" horiz-adv-x="494" 
d="M341.706 606.385c65.627 -105.314 101.172 -228.182 102.202 -352.21c1.78125 -212.868 -90.7852 -481.555 -300.076 -573.721c-42.1484 -18.5635 -79.5186 42.1562 -36.8115 62.9727c175.677 85.6279 258.035 299.018 265.017 484.451
c4.06348 107.818 -18.5342 216.065 -68.9023 311.751c-46.6621 88.6465 -117.36 173.001 -222.954 184.597c-39.3232 4.31348 -41.1475 64.7178 0 62.8721c115.236 -5.17188 203.403 -87.4375 261.525 -180.713z" />
    <glyph glyph-name="asterisk" unicode="*" horiz-adv-x="544" 
d="M463.866 577.356c40.7539 0.808594 40.6191 -62.4062 -0.00585938 -63.207c-41.6836 -0.822266 -83.2031 -3.69824 -124.558 -8.29785c31.7617 -30.0234 63.4658 -60.1045 94.7412 -90.6074c29.5654 -28.8291 -15.1367 -73.1162 -45.167 -45.167
c-32.6699 30.4102 -64.8535 61.3711 -97.0518 92.3027c0.214844 -46.0762 1.86035 -92.1162 4.4209 -138.149c2.38965 -42.9785 -64.3525 -42.707 -66.7275 0c-2.41797 43.5361 -3.44824 87.1299 -3.34082 130.73c-29.4873 -31.29 -57.8584 -63.6094 -84.3838 -97.4385
c-18.0908 -23.0703 -58.1582 8.19824 -40.5537 31.29c23.3135 30.5742 47.1562 60.5762 71.7432 89.8408c-32.377 -6.28809 -64.7969 -12.2471 -97.417 -15.9238c-31.29 -3.52637 -34.166 43.2861 -6.92578 52.042
c-0.0576172 0.142578 -0.12207 0.285156 -0.179688 0.427734c42.793 13.5703 87.5098 24.7939 133.027 33.8643c-3.5127 3.38379 -7.03906 6.75293 -10.5518 10.1299c-19.7012 18.9502 -40.1104 45.5615 -61.9434 61.7002
c-2.21777 1.19434 -4.24902 2.61816 -5.83691 4.31348c-0.236328 0.25 -0.464844 0.493164 -0.701172 0.743164c-15.2441 16.2676 -6.05176 52.3926 20.2803 48.9658c28.5137 -3.71289 47.1846 -28.0137 67.3076 -46.9922c6.2666 -5.90918 12.5264 -11.8252 18.793 -17.7344
c1.4668 32.5488 5.1582 64.8398 15.3232 92.9678c13.4414 37.1846 66.8428 22.584 59.1738 -16.3096c-4.97168 -25.2021 -7.48926 -51.4053 -8.91309 -77.8018c29.0078 27.7275 59.2676 54.2891 91.1729 79.3623c31.5762 24.8154 76.7725 -18.6777 44.9316 -44.9316
c-28.8574 -23.793 -57.3574 -48.1865 -85.3564 -73.1885c40.0098 3.93457 79.8047 6.30273 118.698 7.06836z" />
    <glyph glyph-name="plus" unicode="+" horiz-adv-x="392" 
d="M310.9 319.106c41.4619 0.908203 41.2471 -65.8271 0.00683594 -64.2178c-30.7314 1.20215 -61.2559 -0.514648 -91.4941 -4.39941c-0.0927734 -1.53809 -0.236328 -3.07617 -0.329102 -4.62109c-4.00586 -69.2529 -14.0996 -151.204 8.62012 -217.854
c13.6279 -39.9668 -48.5859 -56.1699 -62.7285 -17.29c-24.9014 68.4375 -19.708 149.322 -17.3691 221.001c0.0576172 1.81738 0.158203 3.63477 0.222656 5.45215c-20.252 -4.90039 -40.3467 -10.5732 -60.2119 -17.04
c-38.0928 -12.3975 -53.4727 46.4551 -16.4033 59.4961c26.4395 9.2998 53.1152 16.4961 80.0127 22.1904c3.87695 56.7061 9.95703 113.276 17.3613 169.61c5.97363 45.4248 77.9521 46.4121 72.4297 0c-6.25977 -52.5928 -12.29 -105.186 -16.8896 -157.929
c28.6357 3.17578 57.543 4.95703 86.7725 5.60059z" />
    <glyph glyph-name="comma" unicode="," horiz-adv-x="273" 
d="M160.14 88.0615c21.4102 37.957 79.2051 4.03418 58.3457 -34.1016c-31.5762 -57.7217 -68.0303 -114.199 -111.996 -163.358c-24.4941 -27.3906 -72.6162 9.48633 -51.084 39.417c37.0908 51.541 73.4736 102.624 104.734 158.043z" />
    <glyph glyph-name="hyphen" unicode="-" horiz-adv-x="379" 
d="M296.301 273.467c44.252 1.99609 43.8496 -66.2256 0.00585938 -68.5723c-34.2793 -1.82422 -68.5449 -4.12793 -102.753 -7.00391c-27.5049 -2.31055 -71.2559 1.19434 -95.8643 -11.8682c-38.5361 -20.4521 -65.7764 31.6113 -33.1709 56.749
c26.1465 20.166 70.3125 17.7764 101.688 21.0742c43.2861 4.5498 86.6152 7.66113 130.095 9.62109z" />
    <glyph glyph-name="period" unicode="." horiz-adv-x="182" 
d="M130.872 -32.333c8.79883 -40.7607 -54.1104 -57.8877 -62.4014 -17.2051c-6.7168 32.9131 -19.7217 70.4766 -18.3701 104.17c1.09473 27.2695 41.4482 42.7002 54.9902 14.8945c14.9365 -30.667 18.6064 -68.624 25.7812 -101.859z" />
    <glyph glyph-name="slash" unicode="/" horiz-adv-x="591" 
d="M473.787 693.114c24.0859 39.5088 85.2842 3.90723 62.0996 -36.3027c-84.4902 -146.598 -165.454 -294.641 -237.226 -447.963c-36.4688 -77.9023 -71.2783 -156.498 -104.062 -236.024c-32.1982 -78.0947 -67.3936 -156.877 -90.9717 -238.091
c-10.1152 -34.8594 -58.7451 -19.6367 -53.1865 14.6641c14.085 86.958 51.6123 172.229 83.9824 253.771c30.6318 77.1729 63.0088 153.759 97.5889 229.25c72.1504 157.492 151.591 312.71 241.775 460.695z" />
    <glyph glyph-name="zero" unicode="0" horiz-adv-x="518" 
d="M81.4463 365.114c-16.4463 -2.16797 -33.291 7.02441 -31.2812 28.4131c10.4082 110.579 135.194 226.202 249.973 187.823c108.319 -36.2188 151.076 -163.924 163.853 -266.477c13.8418 -111.145 -7.49023 -245.331 -78.375 -335.38
c-31.9336 -40.5674 -80.8643 -69.5322 -133.9 -64.3604c-52.3066 5.10059 -91.3145 43.8086 -114.972 88.3467c-58.0439 109.249 -61.6064 240.975 -55.2969 361.634zM205.627 513.507c-40.3242 -20.2305 -84.3623 -66.5791 -93.8408 -112.791
c20.5947 3.97754 43.9795 -7.46777 43.3066 -34.6943c-2.66797 -108.247 -4.97168 -231.345 49.2168 -329.076c26.833 -48.3936 72.873 -63.3662 115.129 -21.1387c35.6895 35.668 53.752 91.2227 65.3125 139.108c24.2578 100.485 18.1777 232.218 -44.4375 318.89
c-32.1553 44.5166 -83.6533 65.3047 -134.687 39.7021z" />
    <glyph glyph-name="one" unicode="1" horiz-adv-x="432" 
d="M108.932 344.462c-21.2178 -34.4014 -74.9482 -3.22559 -54.2891 31.7549c38.5938 65.2979 87.1309 134.559 149.796 178.882c24.1934 17.1113 54.8896 32.4629 84.1621 18.6924c30.6885 -14.4434 38.9941 -53.7021 42.2275 -83.9043
c9.58594 -89.4404 1.13086 -182.766 -5.02148 -272.199c-5.83691 -84.7842 -9.72168 -169.961 -16.46 -254.688c13.4268 1.61621 26.8037 2.91797 40.002 3.99121c43.916 3.5625 43.916 -65.5908 0 -68.5742c-54.832 -3.71973 -105 -18.8135 -158.315 -29.9512
c-32.7422 -6.8457 -56.6924 40.2529 -23.8359 56.5342c20.0947 9.95801 41.4336 17.5264 63.3809 23.3926c-1.80957 140.124 21.9404 280.913 28.0635 420.857c1.57422 35.9463 3.73438 72.6299 2.06738 108.598c-0.350586 7.55371 0.450195 20.5303 -2.33984 30.0303
c-1.60254 -0.586914 -3.51953 -1.15918 -6.03027 -1.73145c-7.23242 -4.07031 -14.1357 -8.63379 -20.7168 -13.6914c-50.0967 -38.6221 -89.8271 -94.7275 -122.69 -147.993z" />
    <glyph glyph-name="two" unicode="2" horiz-adv-x="479" 
d="M107.388 419.359c-2.24609 -30.9961 -46.6787 -39.376 -55.4922 -7.51367c-12.2754 44.3809 37.8281 83.5322 69.4326 107.683c36.7617 28.0918 79.2393 49.0801 124.335 59.8965c43.207 10.3652 94.5332 15.5869 132.884 -11.5391
c39.0156 -27.5908 44.6172 -78.2881 37.7637 -122.046c-17.1328 -109.349 -82.252 -216.266 -134.122 -312.252c-13.2695 -24.5576 -26.7178 -49.0156 -39.8877 -73.624c-7.08887 -13.2412 -14.1211 -26.5039 -21.0312 -39.8457
c-0.236328 -0.450195 -0.458008 -0.901367 -0.694336 -1.35156c25.5449 4.0918 62.6934 8.87793 69.3242 10.2295c31.626 6.47363 63.0156 13.792 94.1621 22.2764c45.9111 12.5117 64.7607 -57.2637 19.5645 -70.9697
c-55.2539 -16.7539 -110.966 -30.2383 -168.051 -39.0869c-37.2266 -5.78027 -82.6084 -11.5107 -99.834 31.2959c-16.3457 40.6182 19.2432 86.1865 37.7998 120.194c24.6729 45.2031 50.2969 89.8838 74.8906 135.13c24.5156 45.1035 48.0078 90.8076 68.417 137.928
c13.9209 32.1484 61.7354 123.671 20.5664 150.604c-32.6699 21.3818 -97.0156 -3.50488 -128.276 -17.8975c-20.4658 -9.4209 -40.3096 -21.4385 -57.9072 -35.5312c-8.44824 -6.75977 -42.9854 -31.7969 -43.8438 -43.5791z" />
    <glyph glyph-name="three" unicode="3" horiz-adv-x="508" 
d="M102.032 434.354c-29.2646 -27.6416 -69.6113 13.8496 -43.751 43.751c43.5869 50.3682 123.914 74.1895 186.457 89.248c50.1035 12.0605 137.27 30.8672 171.241 -23.0703c33.7646 -53.6016 -36.082 -123.585 -70.5264 -158.516
c-24.5156 -24.8584 -51.5703 -47.0342 -78.875 -68.7305c-4.21387 -3.34766 -8.96387 -6.75293 -13.9932 -10.2227c22.791 -0.271484 45.6182 -1.83789 68.0518 -6.02246c33.2207 -6.20215 66.499 -20.9453 91.8223 -43.5938
c64.5469 -57.7295 51.0049 -149.646 18.4775 -220.902c-31.2969 -68.5596 -94.9209 -145.531 -175.799 -150.975c-97.7891 -6.58105 -130.338 86.5293 -129.88 167.586c0.271484 48.665 72.6943 48 75.1123 0c1.4668 -29.0361 -0.47168 -76.3496 32.4707 -89.8271
c25.6738 -10.501 54.667 8.30566 73.1162 24.3936c40.8398 35.6104 70.9424 90.4639 78.0605 144.337c8.09766 61.3125 -35.8037 91.7363 -91.5586 99.4482c-33.8506 4.67871 -68.6953 1.20898 -102.731 1.65918c-25.5811 0.34375 -47.5498 1.18066 -61.6133 25.2305
c-6.03711 10.3301 -7.625 26.876 0.000976562 37.0342c26.3965 35.1455 71.4639 60.1611 105.687 87.5234c36.2471 28.9863 72.4512 59.8184 100.808 96.8164c3.5625 4.64941 21.8037 24.543 20.7021 29.5078c-1.25195 5.62988 -33.9727 3.3125 -38.3652 3.07617
c-26.6182 -1.4375 -53.5801 -8.3125 -79.1973 -15.3945c-46.083 -12.7334 -100.257 -28.8721 -135.717 -62.3574z" />
    <glyph glyph-name="four" unicode="4" horiz-adv-x="451" 
d="M285.771 137.61c-97.2949 -22.8271 -212.624 -28.1934 -232.468 84.0459c-11.7461 66.3848 9.96484 138.9 30.8965 201.337c19.8086 59.1025 40.2461 130.073 85.1133 175.463c23.4854 23.75 66.6064 -7.94727 47.0059 -36.2686
c-29.1289 -42.0918 -45.5176 -89.7412 -61.4131 -138.07c-15.8447 -48.165 -31.2744 -99.4199 -33.499 -150.36c-1.06543 -24.3867 -1.53027 -54.4746 21.6543 -68.7891c18.0195 -11.1309 41.8125 -8.94141 61.9922 -7.11035c27.248 2.46777 54.0234 8.21875 80.542 15.1357
c-0.00683594 8.20508 -0.0214844 16.374 -0.0791016 24.458c-0.757812 104.385 1.03027 208.783 3.8418 313.117c1.28809 47.7568 74.8984 47.8643 74.2764 0c-1.32324 -101.995 -3.74121 -203.983 -3.4834 -306c0.0146484 -3.56934 0.0859375 -7.13867 0.107422 -10.708
c42.4854 8.46973 58.6094 -56.5059 15.8174 -70.291c-4.53516 -1.4668 -9.37793 -3.01172 -14.3564 -4.59277c2.06738 -68.3662 5.64453 -136.582 7.26172 -204.998c0.858398 -36.2969 -53.1504 -42.6494 -62.4072 -8.44824
c-16.4814 60.8838 -20.0654 126.933 -20.8027 192.08z" />
    <glyph glyph-name="five" unicode="5" horiz-adv-x="627" 
d="M103.109 460.464c-40.4033 -18.6348 -75.7285 41.2354 -35.1318 60.0918c75.2412 34.9238 153.294 62.9443 234.258 81.293c65.2188 14.7861 168.358 44.1797 228.999 4.0127c38.1641 -25.2803 3.32617 -86.2646 -36.1328 -61.8213
c-26.9902 16.7178 -74.0391 7.43945 -103.897 3.34082c-32.1338 -4.41406 -64.0391 -11.3174 -95.5 -19.1504c-3.96289 -0.987305 -7.89746 -2.06738 -11.8467 -3.09766c-14.7148 -41.5332 -28.6289 -83.3389 -41.4482 -125.502
c-7.28906 -23.9717 -14.2852 -48.043 -20.8662 -72.2217c-1.82422 -6.70312 -5.22949 -15.5088 -8.14062 -24.4932c3.5625 1.54492 7.09668 3.13281 10.6738 4.64258c10.7236 4.5498 21.4824 9.04199 32.3701 13.1914c26.1533 9.96484 52.8936 18.4492 80.4199 23.7002
c47.5928 9.08496 98.3682 11.0732 144.516 -5.80957c99.3984 -36.3682 115.344 -137.605 76.7217 -226.76c-32.9346 -76.0205 -113.204 -185.642 -205.792 -187.767c-120.122 -2.75391 -103.497 137.605 -82.3223 215.529c12.4541 45.8252 82.1797 26.4102 70.9775 -19.5654
c-6.56738 -26.9473 -39.209 -130.431 16.1738 -121.854c41.5762 6.44531 83.2881 57.5498 105.907 89.626c25.8027 36.5908 54.7607 88.0176 44.5166 134.466c-10.8516 49.2021 -67.6582 60.5117 -110.68 59.6172c-56.5986 -1.18066 -110.508 -22.1191 -161.813 -44.252
c-31.5469 -13.6064 -74.8906 -26.2393 -91.4658 15.5156c-8.57031 21.5898 0.393555 44.5244 6.25977 65.6055c7.3252 26.332 14.9004 52.6074 22.9053 78.7539c10.752 35.1094 22.3555 69.9326 34.5664 104.549c-35.4033 -12.0898 -70.1914 -25.9395 -104.228 -41.6416z
" />
    <glyph glyph-name="six" unicode="6" horiz-adv-x="462" 
d="M139.766 -97.6553c-47.2129 21.8828 -74.2588 69.5156 -83.1367 119.283c-19.8516 111.402 7.46094 235.853 47.8643 339.722c20.6162 53.001 45.8965 104.221 75.29 152.9c25.123 41.5977 53.0859 92.7168 99.5195 113.133
c34.9023 15.3447 62.1641 -29.3145 30.123 -51.54c-38.3213 -26.5898 -61.2988 -77.8232 -82.8809 -117.711c-24.1787 -44.6953 -44.8457 -91.0645 -61.3271 -139.144c-20.4443 -59.668 -40.0811 -132.091 -42.6279 -201.323
c36.3467 28.0703 75.9053 51.0908 120.443 65.1191c49.374 15.5449 113.248 22.4414 149.781 -22.6113c63.2373 -77.9951 -48.4219 -195.464 -110.422 -235.566c-42.5996 -27.5625 -94.1191 -44.7451 -142.627 -22.2617zM253.995 121.348
c-45.9688 -16.4102 -86.957 -45.0898 -121.767 -78.8828c-1.25195 -1.21582 -2.54004 -2.24609 -3.8418 -3.19727c1.1084 -5.3584 2.32422 -10.6738 3.76172 -15.8887c33.6436 -121.811 166.056 -18.4707 205.243 45.3027c13.9141 22.6484 26.5039 54.7754 -8.66309 64.1826
c-23.4639 6.28125 -52.6504 -3.63379 -74.7334 -11.5166z" />
    <glyph glyph-name="seven" unicode="7" horiz-adv-x="563" 
d="M95.8721 483.141c-34.3154 -20.0088 -65.1484 33.0312 -31.0479 53.126c74.5332 43.9512 164.188 67.5723 250.825 56.0977c83.8896 -11.1094 125.145 -79.7617 126.061 -160.317c0.750977 -66.2422 -10.165 -131.361 -25.8604 -195.972
c21.6104 2.99707 43.3711 5.22852 65.3105 6.54492c42.6211 2.55371 42.3779 -63.7812 0 -66.2275c-28.292 -1.63086 -56.1982 -4.96484 -83.7754 -9.8291c-27.1191 -95.4785 -59.374 -190.292 -74.3818 -286.393c-7.58301 -48.5439 -80.3057 -27.4844 -73.4023 20.2373
c12.1396 83.9756 37.1484 164.718 61.8213 245.567c-14.1494 -4.27051 -28.2344 -8.84863 -42.2266 -13.9424c-39.8955 -14.5293 -56.835 48.9365 -17.4688 63.3721c26.9404 9.87891 54.2451 18.1484 81.8506 24.959c11.4102 39.8877 21.7969 80.04 29.5371 120.865
c11.5605 61.0127 34.5449 173.595 -51.7197 188.617c-73.3809 12.7832 -152.449 -9.92969 -215.522 -46.7061z" />
    <glyph glyph-name="eight" unicode="8" horiz-adv-x="580" 
d="M209.234 234.705c-50.5469 20.3594 -114.457 44.3311 -142.979 94.5059c-65.0898 114.514 80.4346 242.733 168.995 291.484c93.876 51.6768 267.743 87.9307 291.979 -59.4395c10.709 -65.1191 -14.0352 -137.098 -32.6846 -198.704
c-19.1211 -63.1797 -40.7959 -125.494 -57.9863 -189.225c4.85742 -6.19531 9.5 -12.5693 13.7852 -19.208c36.1465 -56.0117 39.8594 -121.316 -1.14453 -175.633c-34.9023 -46.2266 -93.2607 -82.209 -152.828 -74.4541
c-151.19 19.6865 -108.812 229.164 -52.0566 316.444c-11.667 4.84277 -23.4062 9.52148 -35.0811 14.2285zM401.814 32.5176c18.8779 37.2695 -1.35254 75.5615 -26.5762 104.348c-21.2461 24.251 -46.7412 42.2354 -74.1963 57.1221
c-0.586914 -1.78809 -1.2168 -3.58398 -2.13965 -5.4082c-23.4561 -46.4189 -86.042 -214.384 13.457 -217.146c34.9092 -0.96582 74.3467 31.2607 89.4551 61.084zM207.739 516.367c-39.5879 -34.3799 -124.179 -117.275 -65.3623 -167.994
c48.415 -41.748 119.185 -55.2109 175.705 -82.8164c21.0176 -10.2656 41.3477 -22.4619 60.29 -36.4688c18.0557 61.5781 39.9238 122.004 57.5 183.768c17.0537 59.918 59.5889 187.401 -42.9639 185.534c-66.8496 -1.21582 -135.738 -39.0938 -185.169 -82.0225z" />
    <glyph glyph-name="nine" unicode="9" horiz-adv-x="622" 
d="M231.567 231.1c-38.9443 -31.5039 -107.063 -87.7559 -156.466 -44.6631c-44.1299 38.5 -20.6592 109.592 -0.787109 153.765c24.9082 55.3828 61.541 107.41 107.396 147.463c46.5195 40.6318 102.939 71.793 165.047 78.6465
c41.877 4.62109 89.6201 -3.12598 112.454 -35.8105c102.231 36.3682 112.711 -205.293 112.382 -263.866c-0.665039 -118.856 -14.3428 -278.459 -120.766 -354.137c-47.3994 -33.707 -112.84 -33.6143 -153.271 11.1738
c-41.998 46.5264 -54.8525 118.227 -50.3672 178.731c3.31934 44.8389 71.9365 45.8115 70.585 0c-1.62402 -55.082 31.082 -188.145 103.891 -109.813c48.3867 52.0566 64.8828 132.956 71.6787 201.294c6.90332 69.3818 11.6533 143.649 -1.2373 212.545
c-2.00293 10.7158 -5.43652 44.7666 -14.457 51.791c-9.33496 7.26758 -21.6465 -8.50586 -30.0732 -16.3037c-24.1436 -22.3408 -47.1709 -45.8691 -70.0332 -69.5117c-47.0342 -48.6514 -93.2461 -98.6543 -145.975 -141.304zM126.751 249.037
c-0.143555 -1.38086 -0.0146484 -2.50195 0.149414 -3.41016c12.6045 3.74121 36.54 22.7549 42.4561 26.9258c15.8096 11.1377 30.7461 23.4346 45.375 36.0674c24.8799 21.4746 48.5156 44.3369 71.7148 67.6006c39.3018 39.4092 77.3301 82.9453 120.237 119.221
c-29.7734 13.6914 -84.7051 -6.625 -106.695 -17.1191c-30.4951 -14.5576 -57.6143 -34.96 -81.1924 -59.0527c-25.123 -25.667 -45.8965 -54.832 -63.0654 -86.3291c-8.82031 -16.1953 -17.0254 -32.8486 -22.4551 -50.5176
c-3.49121 -11.3457 -5.35156 -21.6611 -6.52441 -33.3857z" />
    <glyph glyph-name="colon" unicode=":" horiz-adv-x="182" 
d="M84.4824 308.483c-17.4688 0 -27.9707 13.8447 -29.8447 29.8545c-2.26074 19.2998 -3.16895 38.6426 -3.83398 58.0576c-0.62207 18.2412 -3.74121 36.833 8.66309 51.7627c8.99902 10.8232 29.7012 10.4873 38.7861 0
c0.228516 -0.264648 0.464844 -0.529297 0.693359 -0.800781c1.47363 -1.70215 2.63965 -3.46191 3.65527 -5.24316l-0.0644531 0.492188c8.25488 -13.4199 7.03906 -34.3086 8.44141 -49.6318c1.66699 -18.2129 3.12598 -36.3545 3.34766 -54.6465
c0.200195 -16.1885 -13.8203 -29.8447 -29.8438 -29.8447zM127.903 87.084c4.5 -23.3281 3.34082 -47.958 3.74121 -71.6436c0.729492 -43.4434 -66.8643 -43.3428 -67.4004 0.000976562c-0.292969 23.7783 -1.92383 48.0928 1.90332 71.6426
c5.04297 31.0391 55.9404 30.0879 61.7559 0z" />
    <glyph glyph-name="semicolon" unicode=";" horiz-adv-x="262" 
d="M123.434 424.979c0.114258 3.62695 0.0654297 7.25391 -0.0351562 10.874c-0.207031 7.80469 -0.929688 15.6016 -1.78125 23.3564c-1.65234 15.0801 12.6689 27.542 26.0957 29.5596c14.9863 2.26074 28.5781 -7.34668 33.0205 -21.5537
c5.90918 -18.8926 6.99609 -38.958 4.4707 -58.5088c-2.4248 -18.8428 -15.2939 -33.7939 -35.8027 -31.04c-20.7666 2.79004 -28.8076 20.7451 -26.2754 39.4443c-0.415039 -3.02637 0.264648 6.50195 0.307617 7.86816zM147.542 147.3
c12.8262 39.96 75.8418 22.8271 63.0586 -17.3828c-28.0918 -88.332 -60.0254 -175.219 -97.7314 -259.909c-18.0059 -40.4316 -77.5449 -5.38672 -59.5039 34.7803c35.6035 79.2539 67.6299 159.767 94.1768 242.512z" />
    <glyph glyph-name="less" unicode="&#x3c;" horiz-adv-x="394" 
d="M308.311 376.206c29.6875 7.03906 50.4102 -36.2686 21.4023 -50.7549c-62.0283 -30.9961 -133.721 -48.9297 -189.532 -91.4648c-0.96582 -0.736328 -1.86719 -1.51562 -2.74023 -2.30957c15.8955 -2.59668 31.8408 -4.93555 47.7578 -7.41797
c39.0869 -6.09473 78.1523 -12.1963 117.146 -18.8779c44.9238 -7.69727 25.0586 -73.7676 -18.6279 -67.5801c-59.3311 8.39844 -121.123 14.1289 -179.531 27.5635c-37.1846 8.54883 -66.4785 38.0713 -48.9951 77.9736c17.0752 38.9648 68.7021 63.8945 104.978 80.4834
c47.2422 21.6035 96.959 42.6846 148.143 52.3848z" />
    <glyph glyph-name="equal" unicode="=" horiz-adv-x="477" 
d="M396.179 353.908c40.9043 -4.46387 41.5479 -68.8398 0 -64.7119c-53.5654 5.31543 -107.432 7.66895 -161.24 5.21484c-53.5869 -2.44629 -106.502 -13.5771 -159.882 -15.7588c-31.8115 -1.30176 -32.4336 41.3691 -6.95312 51.377
c49.2881 19.3643 107.575 24.1357 160.118 27.6055c56.1191 3.69824 112.06 2.36816 167.957 -3.72656zM384.604 197.474c42.7783 1.70996 42.6055 -64.832 -0.000976562 -66.3916c-94.8555 -3.47656 -189.16 -11.6602 -283.387 -22.9482
c-34.959 -4.18457 -42.6279 55.8691 -8.29102 61.2559c96.5801 15.165 194.004 24.1855 291.679 28.084z" />
    <glyph glyph-name="greater" unicode="&#x3e;" horiz-adv-x="387" 
d="M336.573 243.214c8.0332 -43.3789 -46.0693 -52.5352 -75.9854 -61.5059c-54.0664 -16.2314 -108.312 -32.0332 -162.722 -47.0703c-45.0098 -12.4326 -63.6523 56.4277 -19.207 69.6836c36.0752 10.7588 72.3154 20.917 108.548 31.1396
c10.4873 2.96191 21.8896 5.42969 33.4785 7.94727c-15.9736 7.03223 -31.9834 13.9785 -48.0791 20.71c-35.8535 15.001 -71.957 29.4229 -107.546 45.0674c-31.5117 13.8496 -8.57715 63.9316 22.999 54.5459c51.9346 -15.4375 102.317 -35.6465 152.234 -56.6211
c30.5957 -12.8623 89.0898 -25.0596 96.2793 -63.8965z" />
    <glyph glyph-name="question" unicode="?" horiz-adv-x="525" 
d="M446.684 565.889c36.3115 -36.0967 31.8135 -88.9404 19.3809 -134.229c-14.6865 -53.5088 -37.4131 -104.878 -60.6045 -155.139c-46.3262 -100.4 -94.7988 -197.281 -116.452 -306.63c-9.10645 -45.9971 -74.6328 -25.0869 -68.71 18.9434
c21.4893 159.703 123.691 293.567 174.768 443.584c13.5342 39.752 28.1416 87.123 -23.3281 102.475c-35.9609 10.7236 -77.7158 6.47461 -113.083 -4.36328c-38.4004 -11.7676 -73.1025 -34.0576 -100.107 -63.7666
c-19.4219 -21.3604 -60.4336 -72.7012 -45.3037 -103.977c16.417 -33.9434 -32.7705 -63.6738 -51.1055 -29.873c-45.3174 83.5391 46.0762 188.267 112.891 229.793c72.8018 45.2461 203.547 70.877 271.655 3.18262zM227.773 -106.638
c13.6699 29.2012 64.7031 15.458 61.7129 -16.7119c-2.48242 -26.6182 -11.1953 -52.4492 -18.6064 -78.0234c-12.3613 -42.6348 -77.3652 -24.7012 -66.4492 18.3203c6.52441 25.7031 12.0469 52.293 23.3428 76.415z" />
    <glyph glyph-name="at" unicode="@" horiz-adv-x="959" 
d="M791.42 634.642c77.8164 -49.8174 124.289 -131.284 116.613 -224.846c-7.59668 -92.5811 -60.1182 -176.707 -122.125 -243.399c-51.7627 -55.6689 -140.566 -121.839 -221.466 -92.7812c-44.3945 15.9453 -60.3115 53.7158 -60.9414 95.9502
c-40.6611 -36.9053 -83.9688 -70.8135 -132.026 -95.5723c-31.8975 -16.4385 -71.9004 -28.4492 -104.163 -6.2373c-32.041 22.0547 -36.0898 61.4131 -25.209 96.3438c23.3848 75.0977 86.8154 141.754 155.99 176.899c59.1309 30.0381 166.749 57.4287 193.146 -25.9316
c13.9785 -9.8291 21.833 -28.6855 11.4531 -47.0205c-14.915 -26.3535 -44.001 -91.1719 -21.5244 -120.13c21.0244 -27.0908 76.1572 5.8584 96.8242 19.3711c63.0439 41.2256 118.169 113.627 144.165 184.075c24.8369 67.3008 20.2734 142.198 -32.9561 194.391
c-49.7314 48.7656 -123.056 72.0361 -191.164 77.4795c-147.227 11.7744 -288.294 -58.0723 -377.57 -173.938c-88.1387 -114.378 -127.604 -277.379 -78.6455 -416.193c25.5449 -72.4297 80.1836 -121.911 156.104 -136.196
c77.9238 -14.665 156.777 8.01855 230.366 32.0547c43.8154 14.3066 62.6582 -54.9756 18.9863 -68.875c-107.053 -34.0723 -224.722 -59.7393 -331.789 -11.3955c-94.5127 42.6777 -144.888 138.006 -159.839 236.925c-28.7646 190.32 54.2451 387.192 205.479 504.689
c146.562 113.87 368.293 148.035 530.292 44.3379zM419.396 193.18c40.7676 32.8057 78.1455 69.5469 115.122 106.517c-36.2471 20.8379 -105.493 -20.46 -131.89 -39.0088c-38.2568 -26.8828 -77.3584 -69.9404 -90.7568 -115.823
c-3.3623 -11.5176 -6.73926 -15.1084 -0.358398 -16.5322c10.208 -2.27441 26.1895 9.62207 34.2305 14.1787c25.8818 14.6719 50.5039 32.041 73.6523 50.6689z" />
    <glyph glyph-name="A" unicode="A" horiz-adv-x="674" 
d="M605.589 352.488c35.9111 -5.18652 28.3994 -66.2705 -5.57227 -65.4482c3.92773 -14.9082 7.82617 -29.8232 11.8682 -44.71c49.8955 -183.768 105.378 -365.832 163.379 -547.195c15.1582 -47.4141 -58.2588 -66.8291 -74.0469 -20.417
c-61.2988 180.227 -115.036 363.085 -163.358 547.203c-6.04492 23.0342 -12.0684 46.1113 -18.0273 69.2168c-71.1709 -1.49512 -143.278 -15.0654 -212.481 -25.3164c-17.2109 -2.54688 -34.4219 -5.20801 -51.626 -7.85449
c-4.64941 -16.3604 -9.33496 -32.7207 -13.7412 -49.1455c-51.6484 -192.545 -95.8145 -390.92 -85.041 -591.24c2.25293 -41.9766 -67.4795 -51.7842 -73.7744 -9.98633c-16.3672 108.669 -1.55957 218.576 18.0557 325.865
c19.1641 104.842 43.4004 208.79 72.1504 311.415c-51.498 -8.47656 -102.91 -17.4609 -154.13 -27.2041c-32.3701 -6.15918 -46.2119 43.1719 -13.6846 49.6318c61.8779 12.29 123.52 25.5312 185.326 38c25.7451 86.2578 54.667 171.657 87.4014 255.482
c18.8779 48.3438 39.3301 96.1436 62.8936 142.405c17.7695 34.8945 38.0859 87.874 76.6504 104.506c2.00977 0.865234 3.96973 1.45898 5.9082 1.98145c15.6162 14.2715 43.4434 13.5557 50.3184 -13.3984c37.4277 -146.783 71.0352 -294.403 108.319 -441.194
c7.76172 -0.672852 15.5088 -1.48828 23.2129 -2.59668zM311.628 328.123c62.1924 10.7158 127.203 23.6934 191.735 27.585c-29.6797 117.969 -57.1494 236.811 -78.5312 356.382c-3.5127 -7.91895 -6.70996 -15.5088 -9.74316 -21.3818
c-11.1807 -21.668 -21.6748 -43.6719 -31.582 -65.9482c-19.4365 -43.7012 -36.5264 -88.4541 -52.7793 -133.429c-20.2734 -56.0977 -38.9297 -112.775 -56.3057 -169.847c12.3896 2.28223 24.7871 4.5 37.2061 6.63867z" />
    <glyph glyph-name="A" unicode="&#xc5;" horiz-adv-x="674" 
d="M605.589 352.488c35.9111 -5.18652 28.3994 -66.2705 -5.57227 -65.4482c3.92773 -14.9082 7.82617 -29.8232 11.8682 -44.71c49.8955 -183.768 105.378 -365.832 163.379 -547.195c15.1582 -47.4141 -58.2588 -66.8291 -74.0469 -20.417
c-61.2988 180.227 -115.036 363.085 -163.358 547.203c-6.04492 23.0342 -12.0684 46.1113 -18.0273 69.2168c-71.1709 -1.49512 -143.278 -15.0654 -212.481 -25.3164c-17.2109 -2.54688 -34.4219 -5.20801 -51.626 -7.85449
c-4.64941 -16.3604 -9.33496 -32.7207 -13.7412 -49.1455c-51.6484 -192.545 -95.8145 -390.92 -85.041 -591.24c2.25293 -41.9766 -67.4795 -51.7842 -73.7744 -9.98633c-16.3672 108.669 -1.55957 218.576 18.0557 325.865
c19.1641 104.842 43.4004 208.79 72.1504 311.415c-51.498 -8.47656 -102.91 -17.4609 -154.13 -27.2041c-32.3701 -6.15918 -46.2119 43.1719 -13.6846 49.6318c61.8779 12.29 123.52 25.5312 185.326 38c25.7451 86.2578 54.667 171.657 87.4014 255.482
c18.8779 48.3438 39.3301 96.1436 62.8936 142.405c17.7695 34.8945 38.0859 87.874 76.6504 104.506c2.00977 0.865234 3.96973 1.45898 5.9082 1.98145c15.6162 14.2715 43.4434 13.5557 50.3184 -13.3984c37.4277 -146.783 71.0352 -294.403 108.319 -441.194
c7.76172 -0.672852 15.5088 -1.48828 23.2129 -2.59668zM311.628 328.123c62.1924 10.7158 127.203 23.6934 191.735 27.585c-29.6797 117.969 -57.1494 236.811 -78.5312 356.382c-3.5127 -7.91895 -6.70996 -15.5088 -9.74316 -21.3818
c-11.1807 -21.668 -21.6748 -43.6719 -31.582 -65.9482c-19.4365 -43.7012 -36.5264 -88.4541 -52.7793 -133.429c-20.2734 -56.0977 -38.9297 -112.775 -56.3057 -169.847c12.3896 2.28223 24.7871 4.5 37.2061 6.63867z" />
    <glyph glyph-name="A" unicode="&#xc4;" horiz-adv-x="674" 
d="M605.589 352.488c35.9111 -5.18652 28.3994 -66.2705 -5.57227 -65.4482c3.92773 -14.9082 7.82617 -29.8232 11.8682 -44.71c49.8955 -183.768 105.378 -365.832 163.379 -547.195c15.1582 -47.4141 -58.2588 -66.8291 -74.0469 -20.417
c-61.2988 180.227 -115.036 363.085 -163.358 547.203c-6.04492 23.0342 -12.0684 46.1113 -18.0273 69.2168c-71.1709 -1.49512 -143.278 -15.0654 -212.481 -25.3164c-17.2109 -2.54688 -34.4219 -5.20801 -51.626 -7.85449
c-4.64941 -16.3604 -9.33496 -32.7207 -13.7412 -49.1455c-51.6484 -192.545 -95.8145 -390.92 -85.041 -591.24c2.25293 -41.9766 -67.4795 -51.7842 -73.7744 -9.98633c-16.3672 108.669 -1.55957 218.576 18.0557 325.865
c19.1641 104.842 43.4004 208.79 72.1504 311.415c-51.498 -8.47656 -102.91 -17.4609 -154.13 -27.2041c-32.3701 -6.15918 -46.2119 43.1719 -13.6846 49.6318c61.8779 12.29 123.52 25.5312 185.326 38c25.7451 86.2578 54.667 171.657 87.4014 255.482
c18.8779 48.3438 39.3301 96.1436 62.8936 142.405c17.7695 34.8945 38.0859 87.874 76.6504 104.506c2.00977 0.865234 3.96973 1.45898 5.9082 1.98145c15.6162 14.2715 43.4434 13.5557 50.3184 -13.3984c37.4277 -146.783 71.0352 -294.403 108.319 -441.194
c7.76172 -0.672852 15.5088 -1.48828 23.2129 -2.59668zM311.628 328.123c62.1924 10.7158 127.203 23.6934 191.735 27.585c-29.6797 117.969 -57.1494 236.811 -78.5312 356.382c-3.5127 -7.91895 -6.70996 -15.5088 -9.74316 -21.3818
c-11.1807 -21.668 -21.6748 -43.6719 -31.582 -65.9482c-19.4365 -43.7012 -36.5264 -88.4541 -52.7793 -133.429c-20.2734 -56.0977 -38.9297 -112.775 -56.3057 -169.847c12.3896 2.28223 24.7871 4.5 37.2061 6.63867z" />
    <glyph glyph-name="A" unicode="&#xc3;" horiz-adv-x="674" 
d="M605.589 352.488c35.9111 -5.18652 28.3994 -66.2705 -5.57227 -65.4482c3.92773 -14.9082 7.82617 -29.8232 11.8682 -44.71c49.8955 -183.768 105.378 -365.832 163.379 -547.195c15.1582 -47.4141 -58.2588 -66.8291 -74.0469 -20.417
c-61.2988 180.227 -115.036 363.085 -163.358 547.203c-6.04492 23.0342 -12.0684 46.1113 -18.0273 69.2168c-71.1709 -1.49512 -143.278 -15.0654 -212.481 -25.3164c-17.2109 -2.54688 -34.4219 -5.20801 -51.626 -7.85449
c-4.64941 -16.3604 -9.33496 -32.7207 -13.7412 -49.1455c-51.6484 -192.545 -95.8145 -390.92 -85.041 -591.24c2.25293 -41.9766 -67.4795 -51.7842 -73.7744 -9.98633c-16.3672 108.669 -1.55957 218.576 18.0557 325.865
c19.1641 104.842 43.4004 208.79 72.1504 311.415c-51.498 -8.47656 -102.91 -17.4609 -154.13 -27.2041c-32.3701 -6.15918 -46.2119 43.1719 -13.6846 49.6318c61.8779 12.29 123.52 25.5312 185.326 38c25.7451 86.2578 54.667 171.657 87.4014 255.482
c18.8779 48.3438 39.3301 96.1436 62.8936 142.405c17.7695 34.8945 38.0859 87.874 76.6504 104.506c2.00977 0.865234 3.96973 1.45898 5.9082 1.98145c15.6162 14.2715 43.4434 13.5557 50.3184 -13.3984c37.4277 -146.783 71.0352 -294.403 108.319 -441.194
c7.76172 -0.672852 15.5088 -1.48828 23.2129 -2.59668zM311.628 328.123c62.1924 10.7158 127.203 23.6934 191.735 27.585c-29.6797 117.969 -57.1494 236.811 -78.5312 356.382c-3.5127 -7.91895 -6.70996 -15.5088 -9.74316 -21.3818
c-11.1807 -21.668 -21.6748 -43.6719 -31.582 -65.9482c-19.4365 -43.7012 -36.5264 -88.4541 -52.7793 -133.429c-20.2734 -56.0977 -38.9297 -112.775 -56.3057 -169.847c12.3896 2.28223 24.7871 4.5 37.2061 6.63867z" />
    <glyph glyph-name="A" unicode="&#xc2;" horiz-adv-x="674" 
d="M605.589 352.488c35.9111 -5.18652 28.3994 -66.2705 -5.57227 -65.4482c3.92773 -14.9082 7.82617 -29.8232 11.8682 -44.71c49.8955 -183.768 105.378 -365.832 163.379 -547.195c15.1582 -47.4141 -58.2588 -66.8291 -74.0469 -20.417
c-61.2988 180.227 -115.036 363.085 -163.358 547.203c-6.04492 23.0342 -12.0684 46.1113 -18.0273 69.2168c-71.1709 -1.49512 -143.278 -15.0654 -212.481 -25.3164c-17.2109 -2.54688 -34.4219 -5.20801 -51.626 -7.85449
c-4.64941 -16.3604 -9.33496 -32.7207 -13.7412 -49.1455c-51.6484 -192.545 -95.8145 -390.92 -85.041 -591.24c2.25293 -41.9766 -67.4795 -51.7842 -73.7744 -9.98633c-16.3672 108.669 -1.55957 218.576 18.0557 325.865
c19.1641 104.842 43.4004 208.79 72.1504 311.415c-51.498 -8.47656 -102.91 -17.4609 -154.13 -27.2041c-32.3701 -6.15918 -46.2119 43.1719 -13.6846 49.6318c61.8779 12.29 123.52 25.5312 185.326 38c25.7451 86.2578 54.667 171.657 87.4014 255.482
c18.8779 48.3438 39.3301 96.1436 62.8936 142.405c17.7695 34.8945 38.0859 87.874 76.6504 104.506c2.00977 0.865234 3.96973 1.45898 5.9082 1.98145c15.6162 14.2715 43.4434 13.5557 50.3184 -13.3984c37.4277 -146.783 71.0352 -294.403 108.319 -441.194
c7.76172 -0.672852 15.5088 -1.48828 23.2129 -2.59668zM311.628 328.123c62.1924 10.7158 127.203 23.6934 191.735 27.585c-29.6797 117.969 -57.1494 236.811 -78.5312 356.382c-3.5127 -7.91895 -6.70996 -15.5088 -9.74316 -21.3818
c-11.1807 -21.668 -21.6748 -43.6719 -31.582 -65.9482c-19.4365 -43.7012 -36.5264 -88.4541 -52.7793 -133.429c-20.2734 -56.0977 -38.9297 -112.775 -56.3057 -169.847c12.3896 2.28223 24.7871 4.5 37.2061 6.63867z" />
    <glyph glyph-name="A" unicode="&#xc1;" horiz-adv-x="674" 
d="M605.589 352.488c35.9111 -5.18652 28.3994 -66.2705 -5.57227 -65.4482c3.92773 -14.9082 7.82617 -29.8232 11.8682 -44.71c49.8955 -183.768 105.378 -365.832 163.379 -547.195c15.1582 -47.4141 -58.2588 -66.8291 -74.0469 -20.417
c-61.2988 180.227 -115.036 363.085 -163.358 547.203c-6.04492 23.0342 -12.0684 46.1113 -18.0273 69.2168c-71.1709 -1.49512 -143.278 -15.0654 -212.481 -25.3164c-17.2109 -2.54688 -34.4219 -5.20801 -51.626 -7.85449
c-4.64941 -16.3604 -9.33496 -32.7207 -13.7412 -49.1455c-51.6484 -192.545 -95.8145 -390.92 -85.041 -591.24c2.25293 -41.9766 -67.4795 -51.7842 -73.7744 -9.98633c-16.3672 108.669 -1.55957 218.576 18.0557 325.865
c19.1641 104.842 43.4004 208.79 72.1504 311.415c-51.498 -8.47656 -102.91 -17.4609 -154.13 -27.2041c-32.3701 -6.15918 -46.2119 43.1719 -13.6846 49.6318c61.8779 12.29 123.52 25.5312 185.326 38c25.7451 86.2578 54.667 171.657 87.4014 255.482
c18.8779 48.3438 39.3301 96.1436 62.8936 142.405c17.7695 34.8945 38.0859 87.874 76.6504 104.506c2.00977 0.865234 3.96973 1.45898 5.9082 1.98145c15.6162 14.2715 43.4434 13.5557 50.3184 -13.3984c37.4277 -146.783 71.0352 -294.403 108.319 -441.194
c7.76172 -0.672852 15.5088 -1.48828 23.2129 -2.59668zM311.628 328.123c62.1924 10.7158 127.203 23.6934 191.735 27.585c-29.6797 117.969 -57.1494 236.811 -78.5312 356.382c-3.5127 -7.91895 -6.70996 -15.5088 -9.74316 -21.3818
c-11.1807 -21.668 -21.6748 -43.6719 -31.582 -65.9482c-19.4365 -43.7012 -36.5264 -88.4541 -52.7793 -133.429c-20.2734 -56.0977 -38.9297 -112.775 -56.3057 -169.847c12.3896 2.28223 24.7871 4.5 37.2061 6.63867z" />
    <glyph glyph-name="B" unicode="B" horiz-adv-x="831" 
d="M38.0332 708.091c3.11914 47.3564 76.1934 48.0293 74.2832 0.0078125c-6.82422 -170.662 -10.1582 -341.424 -5.22949 -512.179c1.15137 -39.96 2.375 -80.0127 4.2207 -120.037c2.6543 22.7197 5.42969 45.2891 8.22656 67.6152
c16.6035 132.477 36.29 267.9 82.7451 393.681c38.1143 103.189 98.5332 213.54 205.479 257.885c41.5977 17.2471 97.0801 21.2959 131.023 -13.9922c35.8174 -37.2412 23.0059 -94.2402 6.9248 -137.348c-17.7197 -47.5068 -44.2598 -90.8506 -77.624 -127.949
c113.362 -5.44336 225.494 -60.8408 292.072 -153.064c88.1172 -122.054 89.1904 -285.276 35.0527 -421.258c-53.9521 -135.517 -161.642 -281.706 -307.431 -325.715c-68.1299 -20.5732 -139.822 -5.60059 -185.741 50.7051
c-47.1494 57.8076 -53.3154 132.44 -40.3105 203.625c27.3623 149.73 119.564 290.04 236.053 385.669c35.5742 29.2012 86.8789 -21.0527 51.0967 -51.0977c-104.32 -87.5947 -185.22 -207.209 -214.135 -341.609c-11.8389 -55.0605 -10.9375 -123.749 35.8535 -163.337
c48.8662 -41.3477 116.01 -11.918 162.701 17.8047c102.789 65.4336 179.182 183.854 211.309 299.97c31.0605 112.274 16.6895 243.456 -66.0557 331.051c-85.6211 90.6357 -234.701 123.363 -347.849 68.6816c-42.2705 -17.9844 -80.0986 41.7979 -37.0205 63.3301
c8.80566 4.39941 17.7979 8.31934 26.9043 11.8818c45.1035 22.0186 84.7412 54.8887 115.795 94.2617c17.5049 22.1973 32.5918 47.3281 43.6582 73.3594c7.52539 17.6904 26.9619 57.4072 12.2324 74.5332c-17.1973 19.9941 -57.1426 1.64551 -74.6689 -7.86914
c-26.2676 -14.2568 -48.6865 -34.1719 -68.166 -56.6914c-39.0293 -45.125 -65.3262 -100.973 -85.5273 -156.613c-47.5635 -131.01 -67.9512 -272.886 -83.7031 -410.763c-14.1357 -123.764 -30.0664 -254.795 -20.5166 -380.268
c1.49512 -5.42969 2.91895 -10.8662 4.5 -16.2744c2.48926 -8.5127 1.85254 -15.9521 -0.81543 -22.0898c0.0146484 -0.128906 0.0292969 -0.264648 0.0439453 -0.400391c3.89844 -31.9619 -50.168 -39.0654 -56.2627 -8.41211
c-3.24805 3.41895 -5.94531 7.71777 -7.79102 13.0254c-54.7314 157.593 -61.8418 328.184 -67.6006 493.48c-6.11621 175.426 -5.27246 351.21 6.27344 526.4z" />
    <glyph glyph-name="C" unicode="C" horiz-adv-x="687" 
d="M53.1484 -216.947c-74.3184 162.442 -58.6309 361.1 -10.1582 528.606c45.375 156.849 127.562 341.296 267.25 436.353c65.2119 44.373 148.744 35.9248 182.444 -40.8252c37.0264 -84.3262 46.584 -186.136 43.7012 -277.2
c-1.42383 -45.0312 -71.0352 -45.1602 -70.084 0c0.987305 46.5479 -1.40234 93.0098 -9.46484 138.929c-6.52441 37.1631 -13.5635 82.373 -32.3984 115.551c-40.4893 71.3203 -147.392 -64.0752 -171.177 -97.0391c-83.21 -115.329 -137.984 -254.974 -163.587 -394.382
c-25.0879 -136.568 -25.918 -298.817 50.21 -420.292c37.6992 -60.168 96.623 -98.6396 169.632 -88.6318c67.7588 9.29199 123.729 53.5078 168.138 102.981c90.8359 101.187 146.591 240.595 164.417 374.666c4.33496 32.5557 55.9404 33.3281 51.9775 0
c-21.9043 -184.304 -87.2451 -375.854 -243.457 -489.961c-65.5049 -47.8359 -151.555 -73.5176 -231.438 -49.9248c-77.6729 22.9414 -133.37 89.8418 -166.005 161.17z" />
    <glyph glyph-name="D" unicode="D" horiz-adv-x="697" 
d="M387.232 64.873c63.6953 82.9883 135.789 158.413 222.897 216.7c1.88184 97.9395 -11.2021 195.528 -46.9336 282.615c-16.6104 40.4893 -42.6416 94.7422 -90.8135 103.92c-43.0283 8.19824 -73.8955 -32.1338 -96.9658 -62.7363
c-56.2344 -74.583 -89.749 -163.694 -116.754 -252.263c-29.165 -95.6504 -49.7959 -193.661 -66.9502 -292.094c-17.2471 -98.9766 -35.4238 -198.519 -33.5137 -299.354c0.0927734 -4.64258 -0.686523 -8.65527 -2.10254 -12.0742
c4.36328 -24.1934 -24.1367 -41.3047 -45.2178 -24.0293c-25.7666 21.1172 -34.1504 57.5576 -41.2969 88.6758c-8.02637 34.9736 -13.4062 70.4053 -17.8848 105.994c-10.1504 80.6992 -16.166 161.964 -20.3223 243.178
c-8.55566 167.199 -7.61133 335.951 8.06934 502.715c4.39941 46.7988 76.8867 48.0869 74.1035 0.000976562c-9.02051 -155.804 -14.3428 -311.257 -9.94336 -467.318c1.91699 -67.8369 5.6582 -135.624 10.6797 -203.304c9.66406 59.9033 22.4404 119.249 33.8574 176.213
c25.7383 128.435 58.6162 259.151 117.347 376.935c38.9863 78.1807 109.777 200.678 213.825 183.773c104.642 -17.0039 151.548 -140.517 174.146 -230.372c55.7334 -221.609 19.8516 -475.109 -70.3691 -682.677c-37.792 -86.9512 -101.13 -189.598 -196.794 -220.908
c-48.7725 -15.96 -99.3408 -0.34375 -128.427 42.3418c-28.2354 41.4404 -27.1055 94.7197 -19.2012 142.147c17.7051 106.223 84.4902 198.446 148.564 281.921zM568.946 3.50781c16.0664 59.8389 28.6924 124.021 35.5957 189.439
c-64.3027 -50.5898 -119.621 -111.996 -168.773 -177.479c-56.7061 -75.5488 -120.279 -162.607 -129.071 -259.681c-4.39941 -48.623 11.6172 -113.012 73.3955 -78.3242c33.75 18.9502 61.8564 48.3584 84.168 79.6553c51.7559 72.6084 81.7725 161.033 104.686 246.39z
" />
    <glyph glyph-name="E" unicode="E" horiz-adv-x="787" 
d="M756.433 701.538c45.2393 -38.293 39.0439 -96.4395 24.5439 -147.931c-12.5332 -44.5732 -81.3506 -25.6445 -69.3545 19.1221c7.3252 27.3408 19.0928 62.9365 -12.0537 79.1533c-22.3906 11.6533 -54.6172 8.86328 -78.46 6.77441
c-62.3145 -5.45117 -123.899 -28.2637 -180.455 -53.873c-107.475 -48.6582 -211.015 -115.665 -290.262 -203.875c-33.4639 -37.248 -87.0156 -99.8271 -75.7559 -155.031c12.1035 -59.3242 98.9189 -65.9199 146.254 -67.0791
c129.586 -3.16895 252.104 47.6572 378.951 65.6484c38.1641 5.41504 68.9023 -46.5908 28.4922 -67.5791c-97.209 -50.4893 -194.583 -105.521 -281.728 -172.186c-42.2129 -32.291 -81.7217 -68.252 -117.139 -107.904
c-30.6172 -34.2793 -86.6436 -92.6738 -71.4062 -143.872c18.2129 -61.2061 117.562 -54.5391 166.334 -49.3174c56.9492 6.10156 113.913 18.5127 169.317 32.7695c118.284 30.4385 233.134 76.4502 341.653 132.319c31.1465 16.0312 57.4219 -28.4785 27.5059 -47.0488
c-107.432 -66.6855 -222.947 -115.437 -344.965 -148.65c-101.802 -27.7129 -227.983 -62.7363 -331.967 -28.793c-43.958 14.3428 -84.3398 43.0068 -97.3594 89.5693c-13.5127 48.3154 2.86133 97.8252 28.9785 138.687c67.1221 105.007 163.466 182.008 267.464 248.278
c-71.4707 -14.2139 -143.442 -22.5479 -215.93 -13.0117c-50.9688 6.70996 -104.32 22.5977 -139.044 62.9512c-37.3418 43.3936 -37.9072 103.075 -18.0352 154.395c43.207 111.553 147.105 197.996 243.636 262.893c101.902 68.5098 223.534 127.748 346.589 142.563
c51.291 6.17383 112.489 6.33789 154.194 -28.9717z" />
    <glyph glyph-name="E" unicode="&#xcb;" horiz-adv-x="787" 
d="M756.433 701.538c45.2393 -38.293 39.0439 -96.4395 24.5439 -147.931c-12.5332 -44.5732 -81.3506 -25.6445 -69.3545 19.1221c7.3252 27.3408 19.0928 62.9365 -12.0537 79.1533c-22.3906 11.6533 -54.6172 8.86328 -78.46 6.77441
c-62.3145 -5.45117 -123.899 -28.2637 -180.455 -53.873c-107.475 -48.6582 -211.015 -115.665 -290.262 -203.875c-33.4639 -37.248 -87.0156 -99.8271 -75.7559 -155.031c12.1035 -59.3242 98.9189 -65.9199 146.254 -67.0791
c129.586 -3.16895 252.104 47.6572 378.951 65.6484c38.1641 5.41504 68.9023 -46.5908 28.4922 -67.5791c-97.209 -50.4893 -194.583 -105.521 -281.728 -172.186c-42.2129 -32.291 -81.7217 -68.252 -117.139 -107.904
c-30.6172 -34.2793 -86.6436 -92.6738 -71.4062 -143.872c18.2129 -61.2061 117.562 -54.5391 166.334 -49.3174c56.9492 6.10156 113.913 18.5127 169.317 32.7695c118.284 30.4385 233.134 76.4502 341.653 132.319c31.1465 16.0312 57.4219 -28.4785 27.5059 -47.0488
c-107.432 -66.6855 -222.947 -115.437 -344.965 -148.65c-101.802 -27.7129 -227.983 -62.7363 -331.967 -28.793c-43.958 14.3428 -84.3398 43.0068 -97.3594 89.5693c-13.5127 48.3154 2.86133 97.8252 28.9785 138.687c67.1221 105.007 163.466 182.008 267.464 248.278
c-71.4707 -14.2139 -143.442 -22.5479 -215.93 -13.0117c-50.9688 6.70996 -104.32 22.5977 -139.044 62.9512c-37.3418 43.3936 -37.9072 103.075 -18.0352 154.395c43.207 111.553 147.105 197.996 243.636 262.893c101.902 68.5098 223.534 127.748 346.589 142.563
c51.291 6.17383 112.489 6.33789 154.194 -28.9717z" />
    <glyph glyph-name="E" unicode="&#xca;" horiz-adv-x="787" 
d="M756.433 701.538c45.2393 -38.293 39.0439 -96.4395 24.5439 -147.931c-12.5332 -44.5732 -81.3506 -25.6445 -69.3545 19.1221c7.3252 27.3408 19.0928 62.9365 -12.0537 79.1533c-22.3906 11.6533 -54.6172 8.86328 -78.46 6.77441
c-62.3145 -5.45117 -123.899 -28.2637 -180.455 -53.873c-107.475 -48.6582 -211.015 -115.665 -290.262 -203.875c-33.4639 -37.248 -87.0156 -99.8271 -75.7559 -155.031c12.1035 -59.3242 98.9189 -65.9199 146.254 -67.0791
c129.586 -3.16895 252.104 47.6572 378.951 65.6484c38.1641 5.41504 68.9023 -46.5908 28.4922 -67.5791c-97.209 -50.4893 -194.583 -105.521 -281.728 -172.186c-42.2129 -32.291 -81.7217 -68.252 -117.139 -107.904
c-30.6172 -34.2793 -86.6436 -92.6738 -71.4062 -143.872c18.2129 -61.2061 117.562 -54.5391 166.334 -49.3174c56.9492 6.10156 113.913 18.5127 169.317 32.7695c118.284 30.4385 233.134 76.4502 341.653 132.319c31.1465 16.0312 57.4219 -28.4785 27.5059 -47.0488
c-107.432 -66.6855 -222.947 -115.437 -344.965 -148.65c-101.802 -27.7129 -227.983 -62.7363 -331.967 -28.793c-43.958 14.3428 -84.3398 43.0068 -97.3594 89.5693c-13.5127 48.3154 2.86133 97.8252 28.9785 138.687c67.1221 105.007 163.466 182.008 267.464 248.278
c-71.4707 -14.2139 -143.442 -22.5479 -215.93 -13.0117c-50.9688 6.70996 -104.32 22.5977 -139.044 62.9512c-37.3418 43.3936 -37.9072 103.075 -18.0352 154.395c43.207 111.553 147.105 197.996 243.636 262.893c101.902 68.5098 223.534 127.748 346.589 142.563
c51.291 6.17383 112.489 6.33789 154.194 -28.9717z" />
    <glyph glyph-name="E" unicode="&#xc9;" horiz-adv-x="787" 
d="M756.433 701.538c45.2393 -38.293 39.0439 -96.4395 24.5439 -147.931c-12.5332 -44.5732 -81.3506 -25.6445 -69.3545 19.1221c7.3252 27.3408 19.0928 62.9365 -12.0537 79.1533c-22.3906 11.6533 -54.6172 8.86328 -78.46 6.77441
c-62.3145 -5.45117 -123.899 -28.2637 -180.455 -53.873c-107.475 -48.6582 -211.015 -115.665 -290.262 -203.875c-33.4639 -37.248 -87.0156 -99.8271 -75.7559 -155.031c12.1035 -59.3242 98.9189 -65.9199 146.254 -67.0791
c129.586 -3.16895 252.104 47.6572 378.951 65.6484c38.1641 5.41504 68.9023 -46.5908 28.4922 -67.5791c-97.209 -50.4893 -194.583 -105.521 -281.728 -172.186c-42.2129 -32.291 -81.7217 -68.252 -117.139 -107.904
c-30.6172 -34.2793 -86.6436 -92.6738 -71.4062 -143.872c18.2129 -61.2061 117.562 -54.5391 166.334 -49.3174c56.9492 6.10156 113.913 18.5127 169.317 32.7695c118.284 30.4385 233.134 76.4502 341.653 132.319c31.1465 16.0312 57.4219 -28.4785 27.5059 -47.0488
c-107.432 -66.6855 -222.947 -115.437 -344.965 -148.65c-101.802 -27.7129 -227.983 -62.7363 -331.967 -28.793c-43.958 14.3428 -84.3398 43.0068 -97.3594 89.5693c-13.5127 48.3154 2.86133 97.8252 28.9785 138.687c67.1221 105.007 163.466 182.008 267.464 248.278
c-71.4707 -14.2139 -143.442 -22.5479 -215.93 -13.0117c-50.9688 6.70996 -104.32 22.5977 -139.044 62.9512c-37.3418 43.3936 -37.9072 103.075 -18.0352 154.395c43.207 111.553 147.105 197.996 243.636 262.893c101.902 68.5098 223.534 127.748 346.589 142.563
c51.291 6.17383 112.489 6.33789 154.194 -28.9717z" />
    <glyph glyph-name="F" unicode="F" horiz-adv-x="639" 
d="M870.926 779.397c67.25 11.8896 189.934 40.4082 232.418 -33.8594c21.9395 -38.3428 -34.1152 -69.7393 -58.4873 -34.1865c-13.4629 19.6367 -59.7246 13.6494 -79.0391 12.4473c-32.7988 -2.03906 -65.1475 -7.92676 -97.4531 -13.6709
c-97.2236 -17.2969 -193.167 -40.582 -287.408 -70.1045c-24.9873 -7.83301 -49.8174 -16.1172 -74.4971 -24.8232c-16.0381 -123.613 -26.9473 -247.813 -30.3242 -372.436c36.3828 11.582 72.8877 22.792 109.521 33.6514c40.668 12.0605 58.165 -52.0205 17.4688 -63.373
c-42.9639 -11.9746 -85.7139 -24.6719 -128.306 -37.8984c-1.75977 -140.159 -0.458008 -285.361 39.6377 -420.041c12.9336 -43.4365 -54.2881 -61.5488 -67.5791 -18.6279c-40.9902 132.333 -47.2715 275.891 -47.0137 414.806
c-41.9844 -13.6846 -83.8252 -27.8125 -125.545 -42.2627c-37.1416 -12.8623 -51.7637 44.624 -16.0459 58.2012c47.085 17.8906 94.5205 34.7158 142.206 50.7822c1.81738 123.005 10.6445 245.981 27.6631 367.835c-44.8311 -17.7627 -89.1045 -36.9482 -132.713 -57.6504
c-44.2588 -21.0029 -88.1816 -42.9854 -130.738 -67.2783c-21.8896 -12.5049 -43.3643 -25.7314 -64.1953 -39.9385c-6.80273 -4.64258 -33.6211 -20.0518 -47.5918 -32.542c14.6006 -3.24023 33.9795 -4.75 44.1592 -6.68164
c32.3057 -6.12305 18.4639 -54.9893 -13.5479 -49.1445c-35.3242 6.45215 -119.564 16.3096 -87.2881 73.9023c13.4053 23.9287 42.5059 42.5713 63.8809 58.7451c25.1807 19.0498 51.7773 35.9824 79.0107 51.9277c95.707 56.0332 196.93 103.239 300.506 143.221
c1.14453 6.81055 2.16797 13.6494 3.37012 20.4521c6.52441 36.9336 50.7617 31.3613 65.3838 4.88574c118.104 41.4619 239.3 71.8721 362.548 93.6621z" />
    <glyph glyph-name="G" unicode="G" horiz-adv-x="732" 
d="M182.48 -185.873c-71.4355 -36.9053 -145.12 6.93457 -171.445 86.5459c-30.1094 91.0283 -9.77148 201.708 15.4658 291.12c49.9531 176.964 133.893 350.681 256.604 477.685c55.9551 57.915 126.682 115.565 206.901 109.864
c30.9531 -2.20312 62.8721 -13.7852 74.1963 -49.2812c8.62695 -27.04 -1.14453 -57.2852 -24.8018 -69.4746c-23.9932 -12.3613 -48.0859 12.5762 -40.4033 36.834c-0.836914 0.378906 -1.67383 0.750977 -2.63281 1.29492
c-4.24219 -0.0712891 -8.48438 -0.135742 -12.7266 -0.207031c-9.32812 -0.557617 -18.3418 -3.06836 -27.2695 -5.90137c-19.4648 -6.16602 -37.4844 -16.8604 -54.4521 -28.9502c-33.5576 -23.9004 -63.1162 -55.3477 -90.4854 -87.4668
c-54.7246 -64.2246 -98.4609 -138.421 -134.937 -216.981c-35.1885 -75.7842 -64.8828 -156.44 -83.3027 -239.443c-10.9736 -49.4385 -42.0488 -221.56 34.9736 -228.921c33.2207 -3.17578 66.8564 43.3506 86.9795 67.208c22.6484 26.8477 43.8369 55.29 63.9238 84.5625
c41.9053 61.0693 79.7979 125.423 120.395 187.565c27.5049 42.1055 56.5049 86.3145 89.1104 125.552c-51.2197 -15.2588 -101.603 -33.9727 -150.854 -57.1426c-5.01465 -11.3525 -14.6572 -19.415 -28.3916 -17.6553c-3.8125 0.493164 -7.625 0.979492 -11.4375 1.46582
c-30.4102 3.8916 -50.2822 51.8779 -17.1973 71.0068c131.053 75.749 276.599 108.97 421.644 130.73c47.2207 7.08887 47.1494 -76.7725 0 -83.2754c-25.3018 -3.4834 -50.4893 -7.50391 -75.541 -12.1318c6.1377 -12.0967 10.4873 -26.5254 12.6045 -42.2129
c11.8682 -88.0391 -4.00586 -180.405 -9.62891 -268.494c-5.85156 -91.5654 -9.08496 -183.273 -10.9521 -275.046c-1.1875 -58.2373 -82.1152 -58.252 -80.9277 -0.000976562c2.5752 126.182 9.59277 252.456 21.8896 377.937
c2.63965 26.9111 5.85156 53.7939 7.47559 80.8125c1.11621 18.5205 1.78125 37.0986 0.757812 55.6475c-0.0361328 1.39453 -0.193359 2.78223 -0.257812 4.16992c-24.7373 -31.7686 -69.6904 -88.4678 -74.083 -94.9414
c-49.374 -72.7734 -93.4902 -149.753 -142.463 -222.854c-45.4033 -67.7656 -97.9961 -153.086 -168.73 -189.619z" />
    <glyph glyph-name="H" unicode="H" horiz-adv-x="925" 
d="M18.3271 122.022c-28.4209 -11.2021 -45.0342 33.5293 -20.2256 47.9648c114.328 66.4922 249.438 105.171 378.773 135.917c-7.81152 163.458 -4.56348 327.367 10.9883 489.316c4.55664 47.457 78.374 48.6299 75.1123 0
c-10.5801 -157.643 -13.7061 -314.691 -8.74121 -471.39c113.569 26.0029 233.427 51.627 350.165 48.4795c2.88281 118.878 12.0967 237.541 28.7285 355.353c5.82324 41.2471 77.4805 31.1465 72.6162 -9.8291c-14.0205 -118.212 -24.1357 -236.731 -28.0127 -355.631
c19.0781 -13.792 18.8848 -46.1904 -1.32422 -54.4746c-0.200195 -12.9268 -0.436523 -25.8535 -0.479492 -38.7939c-0.493164 -150.253 17.5342 -298.982 20.8467 -448.82c0.665039 -30.1738 -45.1816 -36.1611 -52.3643 -7.08203
c-36.168 146.361 -40.0664 305.792 -41.0107 455.902c-0.0859375 13.5771 0.00683594 27.1543 0.0859375 40.7314c-116.366 2.91895 -233.52 -20.3369 -346.953 -45.7324c7.16113 -158.63 22.7275 -316.916 47.8008 -475.095
c6.42383 -40.5244 -54.46 -58.6582 -62.5645 -17.2539c-30.5244 155.983 -51.2412 314.949 -61.5283 474.616c-54.7959 -13.4199 -109.163 -28.5996 -162.736 -46.2832c-68.0088 -22.4482 -132.691 -51.6846 -199.177 -77.8955z" />
    <glyph glyph-name="I" unicode="I" horiz-adv-x="412" 
d="M24.2236 682.488c-39.2012 -11.832 -54.0078 46.8613 -16.6738 60.4678c67.0645 24.4297 136.954 42.4277 206.959 56.7988c0.629883 8.17676 1.17383 16.3535 1.84668 24.5303c3.57715 43.458 70.498 44.4951 68.5742 0
c-0.164062 -3.76953 -0.306641 -7.53906 -0.470703 -11.3018c58.8311 9.82227 118.928 15.0156 177.272 1.13086c40.7969 -9.7002 22.6699 -67.9873 -16.9824 -61.5918c-53.2148 8.57715 -108.068 6.10938 -162.886 -2.39648
c-5.6582 -142.334 -9.60742 -284.732 -8.87793 -427.202c0.701172 -135.824 8.77734 -271.312 13.3838 -406.93c32.291 6.03711 64.7686 11.1377 97.3457 15.1934c42.7354 5.32227 42.0771 -61.5352 0 -66.9004c-32.1338 -4.09863 -63.8955 -9.51367 -95.4287 -15.8447
c0.207031 -8.87793 0.478516 -17.748 0.635742 -26.626c0.59375 -34.0225 -55.6406 -42.8496 -60.4336 -8.17676c-0.958984 6.95312 -1.83887 13.9209 -2.7334 20.8887c-44.1729 -10.7871 -87.96 -23.3057 -131.554 -37.2412
c-39.8457 -12.7334 -54.9902 47.5996 -17.0264 61.7568c46.0469 17.1758 93.1816 31.0898 140.938 42.4854c-13.6992 137.391 -16.4463 276.906 -17.9346 414.318c-1.5166 140.066 1.1084 280.219 9.87891 420.027c-63.8809 -15.0938 -126.725 -35.5391 -185.834 -53.3867z
" />
    <glyph glyph-name="I" unicode="&#xcf;" horiz-adv-x="412" 
d="M24.2236 682.488c-39.2012 -11.832 -54.0078 46.8613 -16.6738 60.4678c67.0645 24.4297 136.954 42.4277 206.959 56.7988c0.629883 8.17676 1.17383 16.3535 1.84668 24.5303c3.57715 43.458 70.498 44.4951 68.5742 0
c-0.164062 -3.76953 -0.306641 -7.53906 -0.470703 -11.3018c58.8311 9.82227 118.928 15.0156 177.272 1.13086c40.7969 -9.7002 22.6699 -67.9873 -16.9824 -61.5918c-53.2148 8.57715 -108.068 6.10938 -162.886 -2.39648
c-5.6582 -142.334 -9.60742 -284.732 -8.87793 -427.202c0.701172 -135.824 8.77734 -271.312 13.3838 -406.93c32.291 6.03711 64.7686 11.1377 97.3457 15.1934c42.7354 5.32227 42.0771 -61.5352 0 -66.9004c-32.1338 -4.09863 -63.8955 -9.51367 -95.4287 -15.8447
c0.207031 -8.87793 0.478516 -17.748 0.635742 -26.626c0.59375 -34.0225 -55.6406 -42.8496 -60.4336 -8.17676c-0.958984 6.95312 -1.83887 13.9209 -2.7334 20.8887c-44.1729 -10.7871 -87.96 -23.3057 -131.554 -37.2412
c-39.8457 -12.7334 -54.9902 47.5996 -17.0264 61.7568c46.0469 17.1758 93.1816 31.0898 140.938 42.4854c-13.6992 137.391 -16.4463 276.906 -17.9346 414.318c-1.5166 140.066 1.1084 280.219 9.87891 420.027c-63.8809 -15.0938 -126.725 -35.5391 -185.834 -53.3867z
" />
    <glyph glyph-name="I" unicode="&#xce;" horiz-adv-x="412" 
d="M24.2236 682.488c-39.2012 -11.832 -54.0078 46.8613 -16.6738 60.4678c67.0645 24.4297 136.954 42.4277 206.959 56.7988c0.629883 8.17676 1.17383 16.3535 1.84668 24.5303c3.57715 43.458 70.498 44.4951 68.5742 0
c-0.164062 -3.76953 -0.306641 -7.53906 -0.470703 -11.3018c58.8311 9.82227 118.928 15.0156 177.272 1.13086c40.7969 -9.7002 22.6699 -67.9873 -16.9824 -61.5918c-53.2148 8.57715 -108.068 6.10938 -162.886 -2.39648
c-5.6582 -142.334 -9.60742 -284.732 -8.87793 -427.202c0.701172 -135.824 8.77734 -271.312 13.3838 -406.93c32.291 6.03711 64.7686 11.1377 97.3457 15.1934c42.7354 5.32227 42.0771 -61.5352 0 -66.9004c-32.1338 -4.09863 -63.8955 -9.51367 -95.4287 -15.8447
c0.207031 -8.87793 0.478516 -17.748 0.635742 -26.626c0.59375 -34.0225 -55.6406 -42.8496 -60.4336 -8.17676c-0.958984 6.95312 -1.83887 13.9209 -2.7334 20.8887c-44.1729 -10.7871 -87.96 -23.3057 -131.554 -37.2412
c-39.8457 -12.7334 -54.9902 47.5996 -17.0264 61.7568c46.0469 17.1758 93.1816 31.0898 140.938 42.4854c-13.6992 137.391 -16.4463 276.906 -17.9346 414.318c-1.5166 140.066 1.1084 280.219 9.87891 420.027c-63.8809 -15.0938 -126.725 -35.5391 -185.834 -53.3867z
" />
    <glyph glyph-name="I" unicode="&#xcd;" horiz-adv-x="412" 
d="M24.2236 682.488c-39.2012 -11.832 -54.0078 46.8613 -16.6738 60.4678c67.0645 24.4297 136.954 42.4277 206.959 56.7988c0.629883 8.17676 1.17383 16.3535 1.84668 24.5303c3.57715 43.458 70.498 44.4951 68.5742 0
c-0.164062 -3.76953 -0.306641 -7.53906 -0.470703 -11.3018c58.8311 9.82227 118.928 15.0156 177.272 1.13086c40.7969 -9.7002 22.6699 -67.9873 -16.9824 -61.5918c-53.2148 8.57715 -108.068 6.10938 -162.886 -2.39648
c-5.6582 -142.334 -9.60742 -284.732 -8.87793 -427.202c0.701172 -135.824 8.77734 -271.312 13.3838 -406.93c32.291 6.03711 64.7686 11.1377 97.3457 15.1934c42.7354 5.32227 42.0771 -61.5352 0 -66.9004c-32.1338 -4.09863 -63.8955 -9.51367 -95.4287 -15.8447
c0.207031 -8.87793 0.478516 -17.748 0.635742 -26.626c0.59375 -34.0225 -55.6406 -42.8496 -60.4336 -8.17676c-0.958984 6.95312 -1.83887 13.9209 -2.7334 20.8887c-44.1729 -10.7871 -87.96 -23.3057 -131.554 -37.2412
c-39.8457 -12.7334 -54.9902 47.5996 -17.0264 61.7568c46.0469 17.1758 93.1816 31.0898 140.938 42.4854c-13.6992 137.391 -16.4463 276.906 -17.9346 414.318c-1.5166 140.066 1.1084 280.219 9.87891 420.027c-63.8809 -15.0938 -126.725 -35.5391 -185.834 -53.3867z
" />
    <glyph glyph-name="J" unicode="J" horiz-adv-x="824" 
d="M6.44824 642.493c144.866 41.2979 290.762 79.9521 436.129 119.476c61.0127 16.5889 123.527 34.8594 186.786 49.6816c-1.53809 7.99805 -2.96191 16.0176 -4.58594 23.9941c-7.94043 38.9727 48.9873 55.3613 59.9824 16.5391
c2.56055 -9.04883 5.01465 -18.127 7.38281 -27.2334c60.583 11.417 121.596 18.249 182.408 15.9453c45.5107 -1.72363 45.7754 -71.3633 0 -70.9199c-55.8691 0.543945 -111.295 -5.34375 -166.291 -14.8369c24.2217 -118.055 34.0361 -239.693 36.2539 -359.558
c2.48242 -134.058 -2.69629 -269.224 -17.6182 -402.501c-7.41113 -66.1914 -17.3828 -132.197 -32.0977 -197.188c-13.2051 -58.3301 -28.1992 -120.122 -65.1045 -168.544c-70.7695 -92.8525 -189.812 -84.5547 -258.729 4.46387
c-74.0391 95.6357 -87.5166 226.875 -94.5986 343.484c-2.68945 44.2451 65.5127 43.7012 68.5742 0c4.81445 -68.6455 11.7959 -137.477 32.9844 -203.296c16.417 -50.998 49.1592 -130.245 110.086 -140.868c70.2402 -12.2393 103.519 75.4492 118.212 127.562
c18.9785 67.3223 31.9189 136.512 40.9893 205.822c33.6221 257.005 35.5889 521.135 -5.50781 777.468c-65.4336 -14.3711 -130.252 -32.3262 -194.448 -49.2588c-137.319 -36.2109 -274.66 -78.8672 -414.562 -104.306
c-2.83984 -1.34473 -5.86621 -2.23926 -8.98535 -2.43262c-3.17578 -0.193359 -6.35938 -0.393555 -9.53516 -0.586914c-33.6357 -2.07422 -38.3213 48.3721 -7.72559 57.0918z" />
    <glyph glyph-name="K" unicode="K" horiz-adv-x="675" 
d="M61.1914 898.339c4.61426 45.6895 75.8018 46.8955 72.4326 -0.0107422c-11.7031 -162.707 -23.5635 -325.5 -27.7988 -488.594c206.737 124.951 407.395 257.671 545.144 461.446c20.4375 30.2305 67.7939 3.44043 49.3662 -28.8574
c-123.749 -216.816 -341.739 -358.17 -550.802 -485.667c87.1943 -60.7617 165.676 -131.817 245.695 -202.115c100.915 -88.6533 205.636 -172.143 310.492 -255.996c33.6074 -26.876 -11.7822 -85.041 -45.9189 -59.5098
c-104.385 78.0811 -204.355 162.857 -301.572 249.63c-82.9883 74.0752 -162.715 152.191 -253.865 216.051c-0.286133 -82.8877 1.70996 -165.747 6.27344 -248.521c2.5752 -46.6982 6.1377 -93.332 10.6943 -139.88c2.2959 -23.4424 4.15625 -47.1133 8.18359 -70.334
c1.1377 -6.58887 6.52441 -51.6846 15.1299 -53.6445c42.2627 -9.61426 23.1553 -69.2744 -17.4697 -63.373c-40.5322 5.8877 -53.752 51.8926 -61.9502 85.8291c-11.2812 46.7051 -15.1582 95.75 -19.9229 143.442c-10.2363 102.488 -15.0859 205.363 -16.0879 308.346
c-2.05273 210.986 10.7734 421.916 31.9766 631.758z" />
    <glyph glyph-name="L" unicode="L" horiz-adv-x="189" 
d="M153.33 562.38c-14.3926 -114.356 -31.1748 -228.399 -45.6182 -342.741c-14.4355 -114.342 -28.3711 -230.294 -20.9814 -345.709c2.81152 -43.8945 9.85059 -96.0938 50.3467 -121.553c41.2764 -25.9531 99.6494 -22.6553 146.276 -21.1025
c116.646 3.8916 230.522 33.4219 343.463 60.4697c45.668 10.9375 64.582 -57.4717 19.3857 -70.3262c-137.04 -38.9727 -279.846 -75.1191 -423.539 -68.4668c-50.3037 2.33203 -102.274 11.4453 -142.842 43.2998c-40.2812 31.626 -59.4453 79.626 -66.8994 129.064
c-18.1914 120.666 -1.38086 246.775 13.7129 366.876c31.9121 253.9 80.2197 505.934 88.0742 762.316c1.36621 44.6025 69.9971 44.7529 69.4102 0c-1.72363 -131.324 -14.4072 -261.897 -30.7891 -392.128z" />
    <glyph glyph-name="M" unicode="M" horiz-adv-x="1112" 
d="M1067.62 480.594c5.02148 -68.8096 9.51562 -137.667 13.6504 -206.549c7.99805 -132.956 15.0947 -266.026 19.6582 -399.146c1.70996 -49.6738 -74.082 -49.0303 -76.7861 0c-8.37012 151.984 -13.6133 304.133 -21.5254 456.146
c-3.70508 71.2275 -7.83984 142.441 -12.6113 213.612c-2.48242 36.9766 -3.37695 74.7969 -10.3799 111.272c-1.07324 5.58008 -5.9375 36.498 -10.709 37.3994c-7.89062 1.48828 -30.1025 -27.5625 -34.8955 -33.0059
c-85.5703 -97.209 -130.395 -237.512 -167.328 -359.372c-20.7021 -68.3096 -37.792 -137.878 -50.3818 -208.154c-11.5459 -64.4531 -15.3086 -129.028 -42.5635 -189.426c-14.751 -32.6846 -63.3809 -20.3164 -72.3232 9.44922
c-23.8574 79.3975 -19.9941 168.603 -25.9531 250.718c-6.28125 86.4648 -13.5781 172.844 -21.6475 259.151c-14.4219 154.23 -28.7793 309.334 -52.7227 462.427c-5.89453 37.6992 -10.8516 77.8018 -22.6621 114.191c-0.793945 2.43262 -1.68848 6.39551 -2.9834 9.93652
c-0.708008 -0.836914 -1.52344 -2.06738 -2.43164 -3.99902c-6.81738 -14.4502 -20.1377 -28.0137 -28.2852 -42.1064c-36.5332 -63.1729 -58.5664 -134.759 -80.8994 -203.862c-93.7188 -289.954 -162.014 -590.038 -222.812 -888.397
c-3.78418 -18.5566 -28.4854 -33.6934 -46.7266 -26.5322c-50.6396 19.8867 -50.1885 68.5664 -53.0928 116.052c-3.87012 63.2656 -4.83594 126.66 -5.78711 190.012c-1.92383 128.277 -4.29199 256.118 -24.9512 383.029c-6.04492 37.127 48.4941 53.9023 57.5576 15.8672
c25.2451 -105.966 32.9922 -215.601 37.0479 -324.191c1.81738 -48.5654 3.06934 -97.1592 4.95117 -145.725c29.3652 127.254 60.3691 254.15 93.3828 380.453c41.333 158.136 81.9004 319.548 145.467 470.53c20.9814 49.832 57.9941 145.346 119.872 154.588
c71.9072 10.7305 83.4893 -84.2471 93.2607 -133.542c33.085 -166.892 48.9014 -338.655 66.585 -507.736c9.02051 -86.2578 16.8105 -172.658 23.7705 -259.108c0.787109 -9.72852 1.45215 -19.5146 2.06055 -29.3369c13.6416 64.3027 30.5527 127.897 50.8184 190.427
c35.9756 110.98 77.9883 230.08 146.948 325.365c26.7471 36.9551 64.0811 89.541 113.469 94.999c57.3857 6.34473 75.6201 -52.2432 84.0254 -97.5322c11.4385 -61.6279 13.377 -125.495 17.9336 -187.902zM477.337 1010.73c0.858398 -0.314453 0.757812 0.22168 0 0z" />
    <glyph glyph-name="N" unicode="N" horiz-adv-x="605" 
d="M10.0859 480.458c-2.61133 34.5088 55.1309 42.2305 60.4316 8.16504c15.1582 -97.3027 26.6543 -195.084 38.6367 -292.815c5.95898 -48.6016 11.9111 -97.1953 17.8701 -145.789c2.84668 -23.2275 5.34277 -46.5479 8.75488 -69.7041
c3.77734 12.6689 7.24707 25.4307 10.6025 38.207c9.75 37.1055 19.2646 74.2686 29.3369 111.288c20.2734 74.5117 41.9775 148.651 66.4932 221.882c38.2861 114.363 79.5908 254.995 166.714 343.091c38.708 39.1367 93.8115 34.0078 120.266 -15.3154
c27.5127 -51.3057 25.1592 -119.429 28.7217 -175.863c17.4902 -277.171 17.7832 -556.467 87.0869 -827.242c12.5762 -49.1162 -62.6289 -69.7402 -75.8203 -20.9033c-50.626 187.466 -64.4756 382.199 -72.5518 575.474
c-3.60547 86.3428 -6.11621 172.743 -10.3516 259.064c-2.10352 42.792 -1.10156 88.21 -11.0166 130.087c-4.24902 17.9336 -6.45898 31.1533 -23.0127 16.002c-15.1016 -13.8135 -26.4971 -36.9912 -36.9346 -54.6963
c-84.8623 -143.986 -128.056 -317.338 -170.991 -477.556c-11.5674 -43.1426 -21.8467 -86.6719 -33.8574 -129.693c-9.05664 -32.4268 -18.8643 -71.6787 -38.9375 -99.4131c-18.2129 -25.1523 -52.0703 -33.7656 -76.3496 -11.0742
c-23.1348 21.625 -25.9746 65.5049 -30.2236 94.5693c-25.2158 172.422 -41.7051 348.506 -54.8672 522.236z" />
    <glyph glyph-name="O" unicode="O" horiz-adv-x="762" 
d="M23.8936 295.782c-53.0791 80.1338 11.5117 210.758 60.2275 278.652c59.8105 83.3535 146.204 144.452 245.23 171.965c90.3281 25.1016 194.799 25.3018 273.853 -30.7529c66.2061 -46.9561 109.492 -120.881 129.809 -198.568
c51.9922 -198.847 -23.2627 -422.438 -139.129 -584.944c-53.8447 -75.5127 -120.702 -147.893 -212.11 -175.727c-92.252 -28.085 -187.358 0.415039 -246.425 76.7217c-61.3916 79.3115 -70.0049 182.974 -65.3838 279.883
c5.25781 110.143 28.1631 218.912 68.1582 321.637c17.2109 44.2158 89.0186 25.252 71.9434 -19.8301c-35.1094 -92.7168 -58.251 -189.383 -64.3818 -288.488c-5.42285 -87.7021 -5.00098 -191.636 59.0879 -259.945c133.485 -142.27 301.822 55.4824 367.263 166.019
c81.7217 138.042 136.689 317.159 92.5166 476.525c-17.5186 63.2012 -53.6797 126.703 -111.358 161.076c-69.9189 41.6475 -161.227 30.5957 -234.765 4.62109c-72.6582 -25.6602 -137.405 -74.4326 -181.793 -137.448
c-22.4053 -31.8047 -40.3037 -66.6641 -52.3789 -103.655c-10.5303 -32.2695 -25.4814 -74.8184 -6.36035 -106.172c21.1387 -34.6729 -31.9482 -64.8535 -54.0029 -31.5684z" />
    <glyph glyph-name="O" unicode="&#xd6;" horiz-adv-x="762" 
d="M23.8936 295.782c-53.0791 80.1338 11.5117 210.758 60.2275 278.652c59.8105 83.3535 146.204 144.452 245.23 171.965c90.3281 25.1016 194.799 25.3018 273.853 -30.7529c66.2061 -46.9561 109.492 -120.881 129.809 -198.568
c51.9922 -198.847 -23.2627 -422.438 -139.129 -584.944c-53.8447 -75.5127 -120.702 -147.893 -212.11 -175.727c-92.252 -28.085 -187.358 0.415039 -246.425 76.7217c-61.3916 79.3115 -70.0049 182.974 -65.3838 279.883
c5.25781 110.143 28.1631 218.912 68.1582 321.637c17.2109 44.2158 89.0186 25.252 71.9434 -19.8301c-35.1094 -92.7168 -58.251 -189.383 -64.3818 -288.488c-5.42285 -87.7021 -5.00098 -191.636 59.0879 -259.945c133.485 -142.27 301.822 55.4824 367.263 166.019
c81.7217 138.042 136.689 317.159 92.5166 476.525c-17.5186 63.2012 -53.6797 126.703 -111.358 161.076c-69.9189 41.6475 -161.227 30.5957 -234.765 4.62109c-72.6582 -25.6602 -137.405 -74.4326 -181.793 -137.448
c-22.4053 -31.8047 -40.3037 -66.6641 -52.3789 -103.655c-10.5303 -32.2695 -25.4814 -74.8184 -6.36035 -106.172c21.1387 -34.6729 -31.9482 -64.8535 -54.0029 -31.5684z" />
    <glyph glyph-name="O" unicode="&#xd5;" horiz-adv-x="762" 
d="M23.8936 295.782c-53.0791 80.1338 11.5117 210.758 60.2275 278.652c59.8105 83.3535 146.204 144.452 245.23 171.965c90.3281 25.1016 194.799 25.3018 273.853 -30.7529c66.2061 -46.9561 109.492 -120.881 129.809 -198.568
c51.9922 -198.847 -23.2627 -422.438 -139.129 -584.944c-53.8447 -75.5127 -120.702 -147.893 -212.11 -175.727c-92.252 -28.085 -187.358 0.415039 -246.425 76.7217c-61.3916 79.3115 -70.0049 182.974 -65.3838 279.883
c5.25781 110.143 28.1631 218.912 68.1582 321.637c17.2109 44.2158 89.0186 25.252 71.9434 -19.8301c-35.1094 -92.7168 -58.251 -189.383 -64.3818 -288.488c-5.42285 -87.7021 -5.00098 -191.636 59.0879 -259.945c133.485 -142.27 301.822 55.4824 367.263 166.019
c81.7217 138.042 136.689 317.159 92.5166 476.525c-17.5186 63.2012 -53.6797 126.703 -111.358 161.076c-69.9189 41.6475 -161.227 30.5957 -234.765 4.62109c-72.6582 -25.6602 -137.405 -74.4326 -181.793 -137.448
c-22.4053 -31.8047 -40.3037 -66.6641 -52.3789 -103.655c-10.5303 -32.2695 -25.4814 -74.8184 -6.36035 -106.172c21.1387 -34.6729 -31.9482 -64.8535 -54.0029 -31.5684z" />
    <glyph glyph-name="O" unicode="&#xd4;" horiz-adv-x="762" 
d="M23.8936 295.782c-53.0791 80.1338 11.5117 210.758 60.2275 278.652c59.8105 83.3535 146.204 144.452 245.23 171.965c90.3281 25.1016 194.799 25.3018 273.853 -30.7529c66.2061 -46.9561 109.492 -120.881 129.809 -198.568
c51.9922 -198.847 -23.2627 -422.438 -139.129 -584.944c-53.8447 -75.5127 -120.702 -147.893 -212.11 -175.727c-92.252 -28.085 -187.358 0.415039 -246.425 76.7217c-61.3916 79.3115 -70.0049 182.974 -65.3838 279.883
c5.25781 110.143 28.1631 218.912 68.1582 321.637c17.2109 44.2158 89.0186 25.252 71.9434 -19.8301c-35.1094 -92.7168 -58.251 -189.383 -64.3818 -288.488c-5.42285 -87.7021 -5.00098 -191.636 59.0879 -259.945c133.485 -142.27 301.822 55.4824 367.263 166.019
c81.7217 138.042 136.689 317.159 92.5166 476.525c-17.5186 63.2012 -53.6797 126.703 -111.358 161.076c-69.9189 41.6475 -161.227 30.5957 -234.765 4.62109c-72.6582 -25.6602 -137.405 -74.4326 -181.793 -137.448
c-22.4053 -31.8047 -40.3037 -66.6641 -52.3789 -103.655c-10.5303 -32.2695 -25.4814 -74.8184 -6.36035 -106.172c21.1387 -34.6729 -31.9482 -64.8535 -54.0029 -31.5684z" />
    <glyph glyph-name="O" unicode="&#xd3;" horiz-adv-x="762" 
d="M23.8936 295.782c-53.0791 80.1338 11.5117 210.758 60.2275 278.652c59.8105 83.3535 146.204 144.452 245.23 171.965c90.3281 25.1016 194.799 25.3018 273.853 -30.7529c66.2061 -46.9561 109.492 -120.881 129.809 -198.568
c51.9922 -198.847 -23.2627 -422.438 -139.129 -584.944c-53.8447 -75.5127 -120.702 -147.893 -212.11 -175.727c-92.252 -28.085 -187.358 0.415039 -246.425 76.7217c-61.3916 79.3115 -70.0049 182.974 -65.3838 279.883
c5.25781 110.143 28.1631 218.912 68.1582 321.637c17.2109 44.2158 89.0186 25.252 71.9434 -19.8301c-35.1094 -92.7168 -58.251 -189.383 -64.3818 -288.488c-5.42285 -87.7021 -5.00098 -191.636 59.0879 -259.945c133.485 -142.27 301.822 55.4824 367.263 166.019
c81.7217 138.042 136.689 317.159 92.5166 476.525c-17.5186 63.2012 -53.6797 126.703 -111.358 161.076c-69.9189 41.6475 -161.227 30.5957 -234.765 4.62109c-72.6582 -25.6602 -137.405 -74.4326 -181.793 -137.448
c-22.4053 -31.8047 -40.3037 -66.6641 -52.3789 -103.655c-10.5303 -32.2695 -25.4814 -74.8184 -6.36035 -106.172c21.1387 -34.6729 -31.9482 -64.8535 -54.0029 -31.5684z" />
    <glyph glyph-name="P" unicode="P" horiz-adv-x="741" 
d="M383.884 849.158c113.634 4.08496 231.819 -30.8242 304.521 -122.876c76.4639 -96.8379 61.2266 -217.661 6.15137 -321.059c-56.377 -105.844 -141.611 -197.824 -233.764 -273.523c-75.5625 -62.0713 -160.096 -125.759 -253.464 -160.911
c4.04199 -41.0469 9.54297 -81.9219 16.8828 -122.525c6.63086 -36.6973 9.80664 -81.9648 40.2734 -107.238c32.377 -26.8613 -13.7637 -71.5781 -45.8828 -45.8828c-29.8447 23.8789 -42.249 59.2031 -50.7617 95.3066c-10.7305 45.5254 -18.499 91.8379 -24.8584 138.157
c-1.03711 7.54688 -1.93848 15.1084 -2.87598 22.6621c-42.3203 -5.62305 -59.2168 59.8604 -15.623 69.0889c2.76172 0.579102 5.4873 1.33691 8.24121 1.98828c-5.27246 62.6582 -7.49023 125.538 -7.18262 188.496c0.873047 177.98 19.7939 355.803 43.8223 532.108
c-46.584 -14.5361 -95.3643 -32.7207 -126.003 -72.0938c-22.1621 -28.4785 -69.3965 8.9707 -49.6387 38.2998c38.4863 57.1211 109.707 81.9795 173.052 101.122c69.9756 21.1455 143.915 36.2471 217.11 38.8799zM424.954 192.828
c124.121 104.599 354.285 340.116 200.233 505.363c-72.1436 77.3799 -180.763 92.7246 -281.42 82.3516c-33.2139 -3.42676 -66.4854 -9.34277 -99.291 -16.9902c-19.6504 -172.572 -41.6045 -344.822 -46.2324 -518.66
c-1.77441 -66.6855 -0.887695 -133.378 3.1543 -199.928c82.1016 34.6016 157.464 92.166 223.556 147.863z" />
    <glyph glyph-name="Q" unicode="Q" horiz-adv-x="771" 
d="M633.447 769.153c107.875 -78.1738 135.031 -218.004 123.979 -343.484c-16.1094 -183.08 -102.295 -379.158 -243.005 -507.578c5.45801 -3.73438 10.8945 -7.44727 16.2812 -11.1025c118.956 -80.7852 236.053 -162.951 366.275 -224.986
c43.3857 -20.667 5.45801 -82.7666 -37.3203 -63.8457c-117.876 52.1348 -223.92 126.982 -329.671 199.77c-24.916 17.1475 -50.0176 34.7168 -75.4414 52.0928c-35.0312 -24.5293 -72.6729 -45.1455 -112.876 -60.7334
c-107.632 -41.7334 -261.397 -32.8848 -326.037 77.3516c-26.2607 44.7881 -27.6982 102.052 -2.9043 147.87c16.1885 29.916 41.0967 49.0801 70.0967 58.4727c-77.2939 59.9971 -57.5361 238.871 -38.9727 315.421c31.6904 130.631 110.486 248.199 218.626 327.704
c105.4 77.501 256.834 115.766 370.969 33.0488zM112.478 -109.165c83.2529 -58.2725 194.691 -25.1396 274.067 24.2129c-58.666 37.2559 -119.535 70.8564 -184.16 93.791c-39.1084 13.8779 -101.216 36.6553 -125.273 -11.3447
c-20.1162 -40.1318 1.09375 -82.6738 35.3662 -106.659zM687.788 450.848c6.39551 101.266 -15.8008 225.201 -114.812 276.914c-105.308 55.0107 -228.427 -2.92578 -309.262 -74.8193c-72.1367 -64.1602 -126.082 -148.035 -153.645 -240.623
c-13.957 -46.8916 -21.1465 -95.3135 -20.4951 -144.266c0.493164 -37.3701 0.822266 -136.232 52.3418 -142.005c17.5264 -1.9668 26.1826 -16.9395 25.3887 -30.5029c100.149 -18.5703 195.42 -75.334 282.771 -133.707c140.066 119.285 226.331 308.911 237.712 489.009z
" />
    <glyph glyph-name="R" unicode="R" horiz-adv-x="823" 
d="M65.8379 131.193c11.3242 48.0215 56.7822 70.5205 107.2 80.1992c-11.6035 150.99 -21.833 302.087 -31.5908 453.127c-4.6709 -2.38184 -9.38477 -4.67773 -14.0205 -7.14551c-32.9854 -17.5615 -66.8506 -35.2949 -86.5654 -68.3584
c-17.626 -29.5586 -58.709 -3.67676 -45.167 26.4043c21.4746 47.6924 69.1963 74.3105 113.477 98.0312c9.30664 4.98633 18.7275 9.76465 28.2061 14.4434c-0.765625 11.9746 -1.55273 23.957 -2.31055 35.9316c-2.69727 42.5205 62.2207 41.6689 65.7256 0
c0.207031 -2.40332 0.421875 -4.7998 0.62207 -7.19629c21.3037 8.63477 42.9004 16.5322 64.7402 23.5928c106.459 34.4082 224.414 55.1182 335.559 34.1221c77.8662 -14.7148 158.572 -57.6074 192.509 -132.763c42.0059 -93.0391 -8.26172 -191.986 -63.1006 -267.435
c-65.6982 -90.3926 -150.904 -172.723 -247.37 -235.81c134.107 -41.8984 262.027 -113.441 367.17 -198.977c31.2607 -25.4385 -10.6377 -79.0615 -42.9717 -55.6982c-123.649 89.3691 -262.021 167.457 -411.329 204.634
c-38.1357 -18.9639 -77.4941 -34.8164 -117.668 -46.9346c-4.34961 -1.30957 -9.80078 -2.87598 -16.0176 -4.54297c12.833 -138.872 25.4658 -277.751 37.2188 -416.716c4.2207 -49.8887 -71.9072 -48.5293 -77.1221 0c-14.3359 133.507 -26.7549 267.271 -37.9287 401.156
c-66.1992 -8.16211 -136.004 -1.04395 -119.265 69.9336zM168.311 132.089c3.66309 0.357422 7.3125 0.81543 10.9678 1.26562c-0.157227 1.91016 -0.307617 3.81348 -0.458008 5.7168c-6.40234 -2.11719 -12.5117 -4.61426 -18.793 -7.26855
c2.93262 -0.00683594 5.75781 0.0361328 8.2832 0.286133zM206.762 694.636c13.6846 -158.994 28.3428 -317.903 43.1074 -476.805c17.1758 -0.0361328 33.0996 -0.894531 46.4199 -1.99609c29.2578 -2.4248 58.5869 -6.5957 87.8232 -12.2617
c0.643555 0.350586 1.29492 0.686523 1.93848 1.03711c129.271 70.5557 252.813 176.034 325.45 305.8c36.8984 65.9199 46.4629 141.047 -16.4814 193.697c-59.9824 50.1816 -144.945 59.0166 -220.072 54.9395c-77.6807 -4.2207 -155.311 -22.8555 -228.42 -48.9658
c-13.4053 -4.78613 -26.625 -10.0156 -39.7656 -15.4453z" />
    <glyph glyph-name="S" unicode="S" horiz-adv-x="826" 
d="M45.6855 531.721c101.509 153.207 284.076 251.995 460.519 290.281c82.2295 17.8555 185.627 27.0693 253.771 -33.1133c75.6484 -66.7998 61.3125 -173.108 42.5635 -261.097c-9.4502 -44.3379 -76.7939 -25.4023 -67.7451 18.6709
c10.9238 53.1865 25.624 117.182 -4.46387 167.077c-28.1777 46.7266 -87.0947 51.6484 -136.396 48.3867c-109.478 -7.26074 -221.674 -53.8799 -314.283 -111.165c-78.2314 -48.3936 -162.958 -119.629 -196.301 -208.262
c-16.2246 -43.1357 -17.0898 -97.3594 18.1631 -131.632c30.7744 -29.9229 79.376 -38.6719 120.144 -45.8252c179.868 -31.5762 429.369 14.7432 556.173 -152.664c124.128 -163.866 -95.4072 -355.28 -254.824 -358.936
c-81.6074 -1.86719 -169.281 38.7725 -209.227 112.347c-39.2939 72.3652 -27.4404 160.64 28.1143 220.622c22.6836 24.4941 58.7227 -11.9531 36.5107 -36.5107c-80.792 -89.3193 4.26367 -212.696 105.458 -229.7c100.199 -16.8398 219.32 55.6611 252.405 151.776
c35.582 103.361 -84.3682 160.347 -164.896 181.485c-100.214 26.3105 -204.834 20.1016 -307.094 30.7891c-85.9932 8.97754 -192.774 24.5078 -241.948 105.479c-46.5195 76.6074 -23.1777 171.757 23.3564 241.99z" />
    <glyph glyph-name="T" unicode="T" horiz-adv-x="536" 
d="M364.225 797.51c5.52246 40.8037 76.6592 30.7891 71.7949 -9.7002c-1.50195 -12.5762 -2.84668 -25.1738 -4.25586 -37.7568c44.0801 13.3701 88.5469 25.4736 133.393 35.9961c99.2412 23.2852 201.272 40.9404 303.203 46.0908
c50.0176 2.53223 100.028 1.00879 149.638 -6.13086c40.0811 -5.77246 79.418 -16.0449 106.673 -47.9707c28.2705 -33.1133 -18.8926 -81.3066 -48.251 -48.25c-27.9062 31.4326 -81.9658 31.7402 -120.881 34.0508c-46.9268 2.7832 -94.0547 0.765625 -140.817 -3.64062
c-91.0498 -8.5918 -181.442 -25.6816 -270.104 -47.9365c-40.4316 -10.1504 -80.5488 -21.5391 -120.344 -33.9365c-14.2998 -147.807 -21.5244 -296.242 -18.7773 -444.793c1.68848 -91.3506 6.93164 -182.673 15.709 -273.616
c8.31934 -86.3076 17.6973 -174.274 52.8779 -254.473c16.3242 -37.2197 -35.9111 -70.2119 -55.8838 -32.6631c-41.5625 78.1455 -53.5303 165.426 -63.9033 252.184c-11.417 95.4707 -18.4629 191.378 -21.3672 287.479
c-4.44922 147.163 0.672852 294.226 14.6436 440.602c-22.1836 -7.74023 -44.252 -15.7881 -66.2061 -24.1367c-85.0273 -32.3408 -172.716 -65.8047 -248.68 -116.616c-34.1582 -22.8486 -64.21 31.125 -31.8184 54.4316c81.543 58.666 181.95 94.8701 275.325 130.259
c26.168 9.92188 52.5068 19.3643 78.9961 28.3994c2.77539 24.0645 5.78711 48.1074 9.03516 72.1289z" />
    <glyph glyph-name="U" unicode="U" horiz-adv-x="732" 
d="M580.053 537.4c16.5176 24.5654 33.8867 49.834 67.1152 44.1895c30.3887 -5.16504 43.2148 -33.2354 49.0732 -60.2324c17.8555 -82.2803 14.3857 -171.234 12.1758 -254.845c-2.2959 -87.0586 -6.20215 -174.003 -3.18359 -261.098
c1.64551 -47.4785 -71.8066 -47.1992 -73.6025 0c-3.8418 100.851 4.15625 201.544 7.23926 302.302c1.53809 50.2393 1.70996 100.442 -1.33008 150.639c-0.822266 13.6133 -2.20312 27.2842 -2.73926 40.9121c-1.03027 26.3604 1.49512 12.1465 -3.63379 8.2832
c-13.957 -10.501 -25.3525 -44.5303 -32.7354 -60.1465c-71.6143 -151.419 -121.796 -311.98 -191.622 -464.222c-38.8867 -84.7979 -155.854 -342.897 -286.142 -238.807c-60.9629 48.708 -74.3975 141.274 -85.7002 213.396
c-13.0342 83.1455 -17.4912 167.028 -15.5244 251.125c2.00293 85.7568 10.501 171.077 21.4746 256.104c5.89453 45.7109 12.7334 91.3145 20.2021 136.797c4.00586 24.4219 0.264648 55.0674 16.0811 74.6611c11.5957 14.3711 33.6504 10.5156 45.7686 0
c0.750977 -0.651367 1.50879 -1.30957 2.25977 -1.96094c10.6729 -9.25684 11.0596 -22.6768 6.45312 -34.2871c2.28906 -35.5244 -5.6582 -72.415 -9.62109 -107.954c-5.25098 -47.085 -10.4873 -94.1836 -14.6074 -141.383
c-8.20508 -93.9336 -12.9189 -188.403 -8.25488 -282.658c4.00586 -81 13.0195 -164.21 36.626 -242.104c9.85059 -32.5059 29.3369 -85.0703 70.7061 -61.6787c29.8516 16.8828 53.165 47.5713 71.7217 75.6133c90.1348 136.211 141.504 297.173 202.988 447.312
c28.8857 70.5195 56.0908 146.519 98.8115 210.042z" />
    <glyph glyph-name="U" unicode="&#xdc;" horiz-adv-x="732" 
d="M580.053 537.4c16.5176 24.5654 33.8867 49.834 67.1152 44.1895c30.3887 -5.16504 43.2148 -33.2354 49.0732 -60.2324c17.8555 -82.2803 14.3857 -171.234 12.1758 -254.845c-2.2959 -87.0586 -6.20215 -174.003 -3.18359 -261.098
c1.64551 -47.4785 -71.8066 -47.1992 -73.6025 0c-3.8418 100.851 4.15625 201.544 7.23926 302.302c1.53809 50.2393 1.70996 100.442 -1.33008 150.639c-0.822266 13.6133 -2.20312 27.2842 -2.73926 40.9121c-1.03027 26.3604 1.49512 12.1465 -3.63379 8.2832
c-13.957 -10.501 -25.3525 -44.5303 -32.7354 -60.1465c-71.6143 -151.419 -121.796 -311.98 -191.622 -464.222c-38.8867 -84.7979 -155.854 -342.897 -286.142 -238.807c-60.9629 48.708 -74.3975 141.274 -85.7002 213.396
c-13.0342 83.1455 -17.4912 167.028 -15.5244 251.125c2.00293 85.7568 10.501 171.077 21.4746 256.104c5.89453 45.7109 12.7334 91.3145 20.2021 136.797c4.00586 24.4219 0.264648 55.0674 16.0811 74.6611c11.5957 14.3711 33.6504 10.5156 45.7686 0
c0.750977 -0.651367 1.50879 -1.30957 2.25977 -1.96094c10.6729 -9.25684 11.0596 -22.6768 6.45312 -34.2871c2.28906 -35.5244 -5.6582 -72.415 -9.62109 -107.954c-5.25098 -47.085 -10.4873 -94.1836 -14.6074 -141.383
c-8.20508 -93.9336 -12.9189 -188.403 -8.25488 -282.658c4.00586 -81 13.0195 -164.21 36.626 -242.104c9.85059 -32.5059 29.3369 -85.0703 70.7061 -61.6787c29.8516 16.8828 53.165 47.5713 71.7217 75.6133c90.1348 136.211 141.504 297.173 202.988 447.312
c28.8857 70.5195 56.0908 146.519 98.8115 210.042z" />
    <glyph glyph-name="U" unicode="&#xdb;" horiz-adv-x="732" 
d="M580.053 537.4c16.5176 24.5654 33.8867 49.834 67.1152 44.1895c30.3887 -5.16504 43.2148 -33.2354 49.0732 -60.2324c17.8555 -82.2803 14.3857 -171.234 12.1758 -254.845c-2.2959 -87.0586 -6.20215 -174.003 -3.18359 -261.098
c1.64551 -47.4785 -71.8066 -47.1992 -73.6025 0c-3.8418 100.851 4.15625 201.544 7.23926 302.302c1.53809 50.2393 1.70996 100.442 -1.33008 150.639c-0.822266 13.6133 -2.20312 27.2842 -2.73926 40.9121c-1.03027 26.3604 1.49512 12.1465 -3.63379 8.2832
c-13.957 -10.501 -25.3525 -44.5303 -32.7354 -60.1465c-71.6143 -151.419 -121.796 -311.98 -191.622 -464.222c-38.8867 -84.7979 -155.854 -342.897 -286.142 -238.807c-60.9629 48.708 -74.3975 141.274 -85.7002 213.396
c-13.0342 83.1455 -17.4912 167.028 -15.5244 251.125c2.00293 85.7568 10.501 171.077 21.4746 256.104c5.89453 45.7109 12.7334 91.3145 20.2021 136.797c4.00586 24.4219 0.264648 55.0674 16.0811 74.6611c11.5957 14.3711 33.6504 10.5156 45.7686 0
c0.750977 -0.651367 1.50879 -1.30957 2.25977 -1.96094c10.6729 -9.25684 11.0596 -22.6768 6.45312 -34.2871c2.28906 -35.5244 -5.6582 -72.415 -9.62109 -107.954c-5.25098 -47.085 -10.4873 -94.1836 -14.6074 -141.383
c-8.20508 -93.9336 -12.9189 -188.403 -8.25488 -282.658c4.00586 -81 13.0195 -164.21 36.626 -242.104c9.85059 -32.5059 29.3369 -85.0703 70.7061 -61.6787c29.8516 16.8828 53.165 47.5713 71.7217 75.6133c90.1348 136.211 141.504 297.173 202.988 447.312
c28.8857 70.5195 56.0908 146.519 98.8115 210.042z" />
    <glyph glyph-name="U" unicode="&#xda;" horiz-adv-x="732" 
d="M580.053 537.4c16.5176 24.5654 33.8867 49.834 67.1152 44.1895c30.3887 -5.16504 43.2148 -33.2354 49.0732 -60.2324c17.8555 -82.2803 14.3857 -171.234 12.1758 -254.845c-2.2959 -87.0586 -6.20215 -174.003 -3.18359 -261.098
c1.64551 -47.4785 -71.8066 -47.1992 -73.6025 0c-3.8418 100.851 4.15625 201.544 7.23926 302.302c1.53809 50.2393 1.70996 100.442 -1.33008 150.639c-0.822266 13.6133 -2.20312 27.2842 -2.73926 40.9121c-1.03027 26.3604 1.49512 12.1465 -3.63379 8.2832
c-13.957 -10.501 -25.3525 -44.5303 -32.7354 -60.1465c-71.6143 -151.419 -121.796 -311.98 -191.622 -464.222c-38.8867 -84.7979 -155.854 -342.897 -286.142 -238.807c-60.9629 48.708 -74.3975 141.274 -85.7002 213.396
c-13.0342 83.1455 -17.4912 167.028 -15.5244 251.125c2.00293 85.7568 10.501 171.077 21.4746 256.104c5.89453 45.7109 12.7334 91.3145 20.2021 136.797c4.00586 24.4219 0.264648 55.0674 16.0811 74.6611c11.5957 14.3711 33.6504 10.5156 45.7686 0
c0.750977 -0.651367 1.50879 -1.30957 2.25977 -1.96094c10.6729 -9.25684 11.0596 -22.6768 6.45312 -34.2871c2.28906 -35.5244 -5.6582 -72.415 -9.62109 -107.954c-5.25098 -47.085 -10.4873 -94.1836 -14.6074 -141.383
c-8.20508 -93.9336 -12.9189 -188.403 -8.25488 -282.658c4.00586 -81 13.0195 -164.21 36.626 -242.104c9.85059 -32.5059 29.3369 -85.0703 70.7061 -61.6787c29.8516 16.8828 53.165 47.5713 71.7217 75.6133c90.1348 136.211 141.504 297.173 202.988 447.312
c28.8857 70.5195 56.0908 146.519 98.8115 210.042z" />
    <glyph glyph-name="V" unicode="V" horiz-adv-x="921" 
d="M49.8691 796.759c81.9863 -156.391 148.13 -322.896 210.094 -488.063c51.0762 -136.16 87.3086 -283.309 164.381 -407.923c29.208 -47.2207 86.5293 -134.358 153.908 -108.162c58.5371 22.7559 92.7949 112.261 116.145 164.976
c62.1572 140.324 92.1377 297.208 116.209 447.969c25.4238 159.23 35.417 319.613 35.7314 480.739c0.0791016 41.2832 63.8389 41.2041 64.0459 0c1.00195 -200.614 -20.1797 -402.322 -59.2734 -599.023c-31.6113 -159.095 -71.085 -323.483 -155.218 -464.015
c-33.4639 -55.8975 -83.6602 -111.938 -154.737 -107.425c-73.5459 4.6709 -127.849 63.5518 -167.551 120.036c-91.2861 129.858 -129.951 292.029 -183.131 439.471c-60.6338 168.108 -132.026 331.267 -199.284 496.685
c-13.8779 34.1221 42.1416 56.2764 58.6807 24.7363z" />
    <glyph glyph-name="W" unicode="W" horiz-adv-x="1024" 
d="M561.839 236.522c30.252 -86.2363 57.3174 -174.364 103.379 -253.876c19.4365 -33.5576 47.6641 -84.5127 89.9268 -92.8613c42.707 -8.44141 77.4736 36.1895 96.2871 67.958c47.6357 80.4346 60.7764 183.553 68.1084 275.061
c16.1025 200.985 10.8447 410.348 -41.0039 605.99c-11.7822 44.4453 56.4766 63.0879 68.709 18.9434c33.3857 -120.473 47.2998 -244.966 50.54 -369.717c3.20508 -123.256 0.973633 -248.857 -19.9717 -370.618c-16.0029 -92.9961 -43.8018 -200.7 -119.815 -263.615
c-76.4072 -63.2441 -163.223 -33.5283 -218.885 39.8096c-57.0928 75.2334 -89.9062 167.171 -120.209 255.667c-17.0107 49.6953 -32.9414 99.8633 -52.3994 148.679c-1.11621 2.80371 -8.65625 23.6924 -12.541 30.9961
c-0.81543 -6.60254 -11.6025 -23.793 -11.7383 -24.0361c-12.0107 -21.1455 -22.2832 -43.2783 -31.3037 -65.8545c-35.6963 -89.3477 -57.7148 -187.559 -114.014 -267.256c-24.165 -34.2012 -63.3594 -66.8213 -108.126 -52.0137
c-41.8555 13.8418 -63.8672 63.7373 -78.46 101.522c-39.6377 102.617 -53.9951 219.312 -68.832 327.731c-15.3945 112.439 -23.4707 224.965 -29.4512 338.22c-1.68848 31.8408 51.6055 39.3379 55.9834 7.57617c15.9238 -115.486 29.8594 -231.374 47.543 -346.61
c8.68457 -56.5986 18.8066 -112.99 31.0967 -168.917c11.0381 -50.2246 20.6455 -104.541 43.4365 -150.968c4.60645 -9.37793 13.627 -34.3506 26.2676 -34.2646c7.38965 0.0498047 19.7441 20.0371 23.1777 24.7871c11.3594 15.7021 20.7305 33.0996 29.4004 50.375
c19.7295 39.3154 34.0078 81.0273 48.9873 122.296c14.4141 39.7236 29.1934 79.4688 47.8213 117.454c15.6162 31.8477 34.9238 74.0889 70.2266 88.1387c79.6475 31.6904 108.397 -110.829 125.859 -160.597z" />
    <glyph glyph-name="X" unicode="X" horiz-adv-x="723" 
d="M291.74 378.971c118.856 122.884 253.115 241.393 400.07 327.099c27.126 15.8232 59.9893 -24.2295 34.3369 -44.5029c-140.217 -110.801 -277.586 -219.213 -400.97 -348.949c4.97852 -9.62891 9.88574 -19.2861 14.958 -28.8721
c67.2217 -127.019 139.63 -253.143 243.062 -354.473c31.8691 -31.2256 -16.5605 -79.3398 -48.8447 -48.8447c-109.277 103.204 -183.273 237.569 -251.39 369.896c-1.80273 3.49805 -3.51953 7.03223 -5.30762 10.5303
c-110.787 -124.014 -208.29 -258.801 -293.031 -402.036c-23.6855 -40.0459 -85.9502 -3.74902 -62.3936 36.4678c91.0645 155.461 199.605 300.864 321.816 433.255c-58.0225 119.843 -109.456 242.812 -154.145 368.264c-13.3701 37.5342 45.8252 53.1504 59.3311 16.3594
c41.7764 -113.784 89.2549 -225.358 142.506 -334.192z" />
    <glyph glyph-name="Y" unicode="Y" horiz-adv-x="747" 
d="M87.7617 337.416c5.37988 -32.6055 16.6191 -56.2988 48.6885 -27.0547c21.8467 19.915 38.9727 46.6123 55.8408 70.7266c32.7559 46.834 62.5 95.6787 94.6191 142.935c53.3008 78.4316 124.313 178.781 218.79 209.928
c113.812 37.5273 171.971 -97.8252 192.931 -185.284c56.5059 -235.78 30.4453 -496.155 -34.3877 -727.751c-29.4443 -105.192 -74.082 -218.705 -153.129 -297.015c-67.3936 -66.7715 -181.578 -98.7764 -258.844 -28.4424
c-80.2197 73.0166 -69.3174 215.028 -54.1729 311.437c18.6348 118.592 66.4629 230.76 120.45 337.169c21.2031 41.791 83.417 5 62.6865 -36.6406c-56.2627 -113.005 -107.06 -233.843 -116.874 -361.104c-4.23535 -54.8252 -6.35254 -122.298 20.6377 -172.251
c26.876 -49.7314 87.4023 -52.3564 132.92 -26.9824c85.9287 47.8926 131.854 163.88 160.998 252.19c34.6729 105.05 55.1602 216.123 67.8008 325.873c13.5059 117.297 15.9238 237.584 -3.84863 354.33c-8.34863 49.2949 -18.2988 101.215 -43.0928 145.224
c-15.1084 26.8115 -36.0898 55.3037 -70.6338 46.2334c-23.1777 -6.08789 -44.71 -24.2217 -62.6152 -39.4727c-71.8359 -61.1768 -121.51 -142.076 -172.3 -220.422c-25.6172 -39.5166 -51.7637 -78.6748 -80.8066 -115.78
c-25.5664 -32.6631 -58.3223 -69.0176 -103.34 -69.1318c-103.841 -0.264648 -95.4785 156.77 -96.8301 224.871c-2.23145 112.153 10.4307 224.228 39.3594 332.61c9.45703 35.4102 61.2773 20.209 54.3242 -14.9795
c-27.4844 -139.122 -42.4355 -290.212 -19.1719 -431.215z" />
    <glyph glyph-name="Y" unicode="&#x178;" horiz-adv-x="747" 
d="M87.7617 337.416c5.37988 -32.6055 16.6191 -56.2988 48.6885 -27.0547c21.8467 19.915 38.9727 46.6123 55.8408 70.7266c32.7559 46.834 62.5 95.6787 94.6191 142.935c53.3008 78.4316 124.313 178.781 218.79 209.928
c113.812 37.5273 171.971 -97.8252 192.931 -185.284c56.5059 -235.78 30.4453 -496.155 -34.3877 -727.751c-29.4443 -105.192 -74.082 -218.705 -153.129 -297.015c-67.3936 -66.7715 -181.578 -98.7764 -258.844 -28.4424
c-80.2197 73.0166 -69.3174 215.028 -54.1729 311.437c18.6348 118.592 66.4629 230.76 120.45 337.169c21.2031 41.791 83.417 5 62.6865 -36.6406c-56.2627 -113.005 -107.06 -233.843 -116.874 -361.104c-4.23535 -54.8252 -6.35254 -122.298 20.6377 -172.251
c26.876 -49.7314 87.4023 -52.3564 132.92 -26.9824c85.9287 47.8926 131.854 163.88 160.998 252.19c34.6729 105.05 55.1602 216.123 67.8008 325.873c13.5059 117.297 15.9238 237.584 -3.84863 354.33c-8.34863 49.2949 -18.2988 101.215 -43.0928 145.224
c-15.1084 26.8115 -36.0898 55.3037 -70.6338 46.2334c-23.1777 -6.08789 -44.71 -24.2217 -62.6152 -39.4727c-71.8359 -61.1768 -121.51 -142.076 -172.3 -220.422c-25.6172 -39.5166 -51.7637 -78.6748 -80.8066 -115.78
c-25.5664 -32.6631 -58.3223 -69.0176 -103.34 -69.1318c-103.841 -0.264648 -95.4785 156.77 -96.8301 224.871c-2.23145 112.153 10.4307 224.228 39.3594 332.61c9.45703 35.4102 61.2773 20.209 54.3242 -14.9795
c-27.4844 -139.122 -42.4355 -290.212 -19.1719 -431.215z" />
    <glyph glyph-name="Y" unicode="&#xdd;" horiz-adv-x="747" 
d="M87.7617 337.416c5.37988 -32.6055 16.6191 -56.2988 48.6885 -27.0547c21.8467 19.915 38.9727 46.6123 55.8408 70.7266c32.7559 46.834 62.5 95.6787 94.6191 142.935c53.3008 78.4316 124.313 178.781 218.79 209.928
c113.812 37.5273 171.971 -97.8252 192.931 -185.284c56.5059 -235.78 30.4453 -496.155 -34.3877 -727.751c-29.4443 -105.192 -74.082 -218.705 -153.129 -297.015c-67.3936 -66.7715 -181.578 -98.7764 -258.844 -28.4424
c-80.2197 73.0166 -69.3174 215.028 -54.1729 311.437c18.6348 118.592 66.4629 230.76 120.45 337.169c21.2031 41.791 83.417 5 62.6865 -36.6406c-56.2627 -113.005 -107.06 -233.843 -116.874 -361.104c-4.23535 -54.8252 -6.35254 -122.298 20.6377 -172.251
c26.876 -49.7314 87.4023 -52.3564 132.92 -26.9824c85.9287 47.8926 131.854 163.88 160.998 252.19c34.6729 105.05 55.1602 216.123 67.8008 325.873c13.5059 117.297 15.9238 237.584 -3.84863 354.33c-8.34863 49.2949 -18.2988 101.215 -43.0928 145.224
c-15.1084 26.8115 -36.0898 55.3037 -70.6338 46.2334c-23.1777 -6.08789 -44.71 -24.2217 -62.6152 -39.4727c-71.8359 -61.1768 -121.51 -142.076 -172.3 -220.422c-25.6172 -39.5166 -51.7637 -78.6748 -80.8066 -115.78
c-25.5664 -32.6631 -58.3223 -69.0176 -103.34 -69.1318c-103.841 -0.264648 -95.4785 156.77 -96.8301 224.871c-2.23145 112.153 10.4307 224.228 39.3594 332.61c9.45703 35.4102 61.2773 20.209 54.3242 -14.9795
c-27.4844 -139.122 -42.4355 -290.212 -19.1719 -431.215z" />
    <glyph glyph-name="Z" unicode="Z" horiz-adv-x="770" 
d="M48.4238 571.122c-8.39844 -38.4004 -66.5537 -21.9766 -58.6924 16.1729c14.1211 68.4453 73.1592 112.848 129.364 147.75c64.2178 39.8809 136.439 68.4092 210.414 83.8535c123.112 25.6953 284.518 29.3867 378.086 -69.3896
c98.8906 -104.392 44.7812 -253.515 -19.9658 -360.968c-71.6641 -118.941 -163.809 -228.233 -264.115 -323.919c-20.8955 -19.9229 -42.4854 -39.123 -64.4541 -57.8936c23.3994 3.85547 46.8848 7.22461 70.4482 10.0645
c125.974 15.1865 271.176 26.332 385.354 -39.5811c41.9268 -24.2002 4.29199 -88.5176 -37.9141 -64.8535c-98.7334 55.3467 -226.073 42.4346 -334.277 30.3447c-60.29 -6.73828 -120.13 -17.9404 -178.982 -32.6338
c-14.8936 -3.71973 -29.7441 -7.68262 -44.5166 -11.875c-42.9072 -30.3242 -91.0078 -58.3232 -141.548 -57.4072c-32.4346 0.586914 -50.3613 41.1406 -26.7402 64.5537c35.0449 34.7373 87.2012 50.5322 136.274 63.2441c24.251 16.2744 47.8789 33.5 70.8418 51.5059
c48.8369 38.293 95.4492 79.5049 139.751 122.963c81.9727 80.4199 155.919 169.253 218.677 265.476c56.5635 86.7227 128.929 225.387 30.1816 309.141c-86.8223 73.6387 -233.756 58.2441 -335.672 31.1533c-54.4453 -14.4717 -106.352 -36.3184 -154.838 -64.9971
c-44.667 -26.4111 -95.8721 -58.6953 -107.676 -112.704z" />
    <glyph glyph-name="bracketleft" unicode="[" horiz-adv-x="388" 
d="M293.698 -193.452c45.3105 14.6143 63.0273 -54.6328 19.4336 -70.4922c-53.5439 -19.4795 -103.633 -54.6602 -163.443 -39.001c-56.999 14.9297 -76.8145 68.4385 -86.0928 121.038c-23.7422 134.594 -10.916 277.972 -2.44629 413.517
c9.07812 145.26 22.9707 290.119 41.334 434.499c6.69531 52.6357 5.8584 122.462 41.0322 165.798c32.4053 39.9238 91.9443 50.7617 133.606 19.1641c21.8828 -16.5967 10.3369 -57.2148 -20.0869 -47.6572c-60.1465 18.8926 -72.0576 -34.8516 -77.9883 -81.4355
c-7.09668 -55.7979 -12.9551 -111.781 -18.4561 -167.758c-10.7734 -109.671 -19.3145 -219.606 -25.3877 -329.635c-5.89453 -106.709 -10.6807 -213.947 -4.11328 -320.742c2.0459 -33.3926 0.0214844 -120.301 38.9014 -133.12
c38.293 -12.6191 88.5898 24.501 123.707 35.8252z" />
    <glyph glyph-name="backslash" unicode="\" horiz-adv-x="429" 
d="M376.9 -252.197c14.9648 -47.9141 -59.7686 -68.0439 -74.8555 -20.6377c-53.1582 167.007 -98.0039 336.546 -135.932 507.645c-37.4629 168.98 -63.1582 341.009 -114.456 506.635c-12.6191 40.7393 50.5684 57.6572 63.5381 17.5186
c53.2656 -164.854 81.293 -336.481 121.245 -504.762c40.4814 -170.505 88.2031 -339.156 140.46 -506.398z" />
    <glyph glyph-name="bracketright" unicode="]" horiz-adv-x="406" 
d="M328.375 658.227c28.1709 -134.536 30.7451 -272.885 25.1152 -409.703c-2.83301 -68.9102 -6.95312 -137.877 -13.5771 -206.529c-6.47363 -67.0928 -12.2822 -137.734 -32.584 -202.338c-15.8955 -50.583 -43.7588 -99.6064 -91.1729 -126.547
c-45.9688 -26.1172 -104.992 -30.5879 -149.352 1.00195c-38.8008 27.6338 -3.79102 91.0068 38 65.0039c39.0156 -24.2793 83.5889 -1.30176 106.802 33.9365c24.6221 37.377 31.8975 84.3398 39.0293 127.669c18.1484 110.301 24.8301 223.069 29.1504 334.672
c4.17773 108.033 3.73438 217.582 -12.4395 324.706c-7.51855 49.8105 -15.666 103.047 -33.6719 150.346c-9.63574 25.3018 -20.6592 41.29 -49.0371 43.4072c-22.29 1.65918 -44.7881 -4.30664 -67.3145 -2.86133c-39.1299 2.49707 -39.7021 62.708 0 61.3633
c57.4932 -1.95312 110.314 17.9404 153 -33.3438c35.3672 -42.4854 47.042 -108.219 58.0518 -160.783z" />
    <glyph glyph-name="asciicircum" unicode="^" horiz-adv-x="359" 
d="M306.509 401.979c16.9463 -42.7715 -51.5479 -60.5479 -68.5518 -18.9004c-11.5312 28.2568 -18.835 57.293 -24.6152 87.1875c-2.47559 12.8047 -4.58594 25.6738 -6.86816 38.5068c-1.06543 6.20898 -2.18848 12.4111 -3.34766 18.6064
c-17.1689 -13.4912 -32.8213 -29.2002 -46.8926 -45.7178c-5.3291 -6.25977 -42.5352 -48.0146 -40.4102 -57.1064c9.62891 -41.1475 -48.5576 -56.1914 -62.5645 -17.2471c-14.0068 38.9297 20.2939 80.1416 42.9062 109.135
c24.0791 30.8672 57.1074 70.7979 94.9277 84.9766c39.8662 14.9512 68.4521 -11.4668 78.3672 -48.3789c13.6064 -50.6328 17.5127 -101.745 37.0488 -151.062z" />
    <glyph glyph-name="underscore" unicode="_" horiz-adv-x="549" 
d="M465.748 -23.0479c44.3877 -2.89746 44.668 -72.1084 0.000976562 -69.4111c-128.313 7.74023 -256.584 4.56445 -384.382 -9.29883c-42.5703 -4.61426 -41.0684 60.4258 0 65.8906c127.533 16.9678 255.996 21.1816 384.381 12.8193z" />
    <glyph glyph-name="grave" unicode="`" horiz-adv-x="197" 
d="M144.665 489.883c14.3711 -40.8184 -50.0801 -57.9492 -64.502 -17.7822c-18.5996 51.792 -31.3975 108.584 -30.0674 163.888c1.01562 42.2197 59.5312 40.0303 64.0449 -0.000976562c5.6875 -50.4326 13.5996 -98.0322 30.5244 -146.104z" />
    <glyph glyph-name="a" unicode="a" horiz-adv-x="363" 
d="M339.463 240.347c5.72266 -75.2979 3.95312 -156.739 -13.7451 -230.449c-9.42871 -39.2725 -74.7764 -31.2314 -71.1348 9.62988c1.70215 19.1211 4.15625 38.9219 6.70312 59.0801c-26.5186 -29.2656 -57.5791 -54.0098 -92.2949 -68.3164
c-68.917 -28.3994 -153.979 -1.56641 -153.994 84.1191c-0.0146484 74.7764 65.1045 139.724 129.916 166.907c37.8496 15.8594 85.6777 21.1455 123.549 6.74512c-1.98828 12.833 -4.71387 25.4658 -8.49805 37.7773c-13.585 44.1514 -48.7949 71.8857 -96.1084 63.0801
c-39.3018 -7.31836 -85.127 -42.042 -85.291 -84.7705c-0.114258 -30.2812 -41.7402 -33.8721 -50.8828 -6.88867c-19.6074 57.8789 31.5908 114.471 79.9492 139.071c50.876 25.8887 113.634 25.624 160.561 -8.79883c53.0654 -38.9229 66.5713 -105.322 71.2715 -167.187z
M191.804 104.51c29.2725 27.0762 52.8291 58.9229 72.415 93.46c-32.5488 23.2207 -72.6943 16.7686 -109.649 -4.56348c-30.6318 -17.6768 -75.2197 -59.4746 -72.5439 -98.998c4.32812 -64.0098 86.9512 -11.0088 109.778 10.1016z" />
    <glyph glyph-name="a" unicode="&#xe5;" horiz-adv-x="363" 
d="M339.463 240.347c5.72266 -75.2979 3.95312 -156.739 -13.7451 -230.449c-9.42871 -39.2725 -74.7764 -31.2314 -71.1348 9.62988c1.70215 19.1211 4.15625 38.9219 6.70312 59.0801c-26.5186 -29.2656 -57.5791 -54.0098 -92.2949 -68.3164
c-68.917 -28.3994 -153.979 -1.56641 -153.994 84.1191c-0.0146484 74.7764 65.1045 139.724 129.916 166.907c37.8496 15.8594 85.6777 21.1455 123.549 6.74512c-1.98828 12.833 -4.71387 25.4658 -8.49805 37.7773c-13.585 44.1514 -48.7949 71.8857 -96.1084 63.0801
c-39.3018 -7.31836 -85.127 -42.042 -85.291 -84.7705c-0.114258 -30.2812 -41.7402 -33.8721 -50.8828 -6.88867c-19.6074 57.8789 31.5908 114.471 79.9492 139.071c50.876 25.8887 113.634 25.624 160.561 -8.79883c53.0654 -38.9229 66.5713 -105.322 71.2715 -167.187z
M191.804 104.51c29.2725 27.0762 52.8291 58.9229 72.415 93.46c-32.5488 23.2207 -72.6943 16.7686 -109.649 -4.56348c-30.6318 -17.6768 -75.2197 -59.4746 -72.5439 -98.998c4.32812 -64.0098 86.9512 -11.0088 109.778 10.1016z" />
    <glyph glyph-name="a" unicode="&#xe4;" horiz-adv-x="363" 
d="M339.463 240.347c5.72266 -75.2979 3.95312 -156.739 -13.7451 -230.449c-9.42871 -39.2725 -74.7764 -31.2314 -71.1348 9.62988c1.70215 19.1211 4.15625 38.9219 6.70312 59.0801c-26.5186 -29.2656 -57.5791 -54.0098 -92.2949 -68.3164
c-68.917 -28.3994 -153.979 -1.56641 -153.994 84.1191c-0.0146484 74.7764 65.1045 139.724 129.916 166.907c37.8496 15.8594 85.6777 21.1455 123.549 6.74512c-1.98828 12.833 -4.71387 25.4658 -8.49805 37.7773c-13.585 44.1514 -48.7949 71.8857 -96.1084 63.0801
c-39.3018 -7.31836 -85.127 -42.042 -85.291 -84.7705c-0.114258 -30.2812 -41.7402 -33.8721 -50.8828 -6.88867c-19.6074 57.8789 31.5908 114.471 79.9492 139.071c50.876 25.8887 113.634 25.624 160.561 -8.79883c53.0654 -38.9229 66.5713 -105.322 71.2715 -167.187z
M191.804 104.51c29.2725 27.0762 52.8291 58.9229 72.415 93.46c-32.5488 23.2207 -72.6943 16.7686 -109.649 -4.56348c-30.6318 -17.6768 -75.2197 -59.4746 -72.5439 -98.998c4.32812 -64.0098 86.9512 -11.0088 109.778 10.1016z" />
    <glyph glyph-name="a" unicode="&#xe3;" horiz-adv-x="363" 
d="M339.463 240.347c5.72266 -75.2979 3.95312 -156.739 -13.7451 -230.449c-9.42871 -39.2725 -74.7764 -31.2314 -71.1348 9.62988c1.70215 19.1211 4.15625 38.9219 6.70312 59.0801c-26.5186 -29.2656 -57.5791 -54.0098 -92.2949 -68.3164
c-68.917 -28.3994 -153.979 -1.56641 -153.994 84.1191c-0.0146484 74.7764 65.1045 139.724 129.916 166.907c37.8496 15.8594 85.6777 21.1455 123.549 6.74512c-1.98828 12.833 -4.71387 25.4658 -8.49805 37.7773c-13.585 44.1514 -48.7949 71.8857 -96.1084 63.0801
c-39.3018 -7.31836 -85.127 -42.042 -85.291 -84.7705c-0.114258 -30.2812 -41.7402 -33.8721 -50.8828 -6.88867c-19.6074 57.8789 31.5908 114.471 79.9492 139.071c50.876 25.8887 113.634 25.624 160.561 -8.79883c53.0654 -38.9229 66.5713 -105.322 71.2715 -167.187z
M191.804 104.51c29.2725 27.0762 52.8291 58.9229 72.415 93.46c-32.5488 23.2207 -72.6943 16.7686 -109.649 -4.56348c-30.6318 -17.6768 -75.2197 -59.4746 -72.5439 -98.998c4.32812 -64.0098 86.9512 -11.0088 109.778 10.1016z" />
    <glyph glyph-name="a" unicode="&#xe2;" horiz-adv-x="363" 
d="M339.463 240.347c5.72266 -75.2979 3.95312 -156.739 -13.7451 -230.449c-9.42871 -39.2725 -74.7764 -31.2314 -71.1348 9.62988c1.70215 19.1211 4.15625 38.9219 6.70312 59.0801c-26.5186 -29.2656 -57.5791 -54.0098 -92.2949 -68.3164
c-68.917 -28.3994 -153.979 -1.56641 -153.994 84.1191c-0.0146484 74.7764 65.1045 139.724 129.916 166.907c37.8496 15.8594 85.6777 21.1455 123.549 6.74512c-1.98828 12.833 -4.71387 25.4658 -8.49805 37.7773c-13.585 44.1514 -48.7949 71.8857 -96.1084 63.0801
c-39.3018 -7.31836 -85.127 -42.042 -85.291 -84.7705c-0.114258 -30.2812 -41.7402 -33.8721 -50.8828 -6.88867c-19.6074 57.8789 31.5908 114.471 79.9492 139.071c50.876 25.8887 113.634 25.624 160.561 -8.79883c53.0654 -38.9229 66.5713 -105.322 71.2715 -167.187z
M191.804 104.51c29.2725 27.0762 52.8291 58.9229 72.415 93.46c-32.5488 23.2207 -72.6943 16.7686 -109.649 -4.56348c-30.6318 -17.6768 -75.2197 -59.4746 -72.5439 -98.998c4.32812 -64.0098 86.9512 -11.0088 109.778 10.1016z" />
    <glyph glyph-name="a" unicode="&#xe1;" horiz-adv-x="363" 
d="M339.463 240.347c5.72266 -75.2979 3.95312 -156.739 -13.7451 -230.449c-9.42871 -39.2725 -74.7764 -31.2314 -71.1348 9.62988c1.70215 19.1211 4.15625 38.9219 6.70312 59.0801c-26.5186 -29.2656 -57.5791 -54.0098 -92.2949 -68.3164
c-68.917 -28.3994 -153.979 -1.56641 -153.994 84.1191c-0.0146484 74.7764 65.1045 139.724 129.916 166.907c37.8496 15.8594 85.6777 21.1455 123.549 6.74512c-1.98828 12.833 -4.71387 25.4658 -8.49805 37.7773c-13.585 44.1514 -48.7949 71.8857 -96.1084 63.0801
c-39.3018 -7.31836 -85.127 -42.042 -85.291 -84.7705c-0.114258 -30.2812 -41.7402 -33.8721 -50.8828 -6.88867c-19.6074 57.8789 31.5908 114.471 79.9492 139.071c50.876 25.8887 113.634 25.624 160.561 -8.79883c53.0654 -38.9229 66.5713 -105.322 71.2715 -167.187z
M191.804 104.51c29.2725 27.0762 52.8291 58.9229 72.415 93.46c-32.5488 23.2207 -72.6943 16.7686 -109.649 -4.56348c-30.6318 -17.6768 -75.2197 -59.4746 -72.5439 -98.998c4.32812 -64.0098 86.9512 -11.0088 109.778 10.1016z" />
    <glyph glyph-name="b" unicode="b" horiz-adv-x="464" 
d="M434.518 255.025c25.4805 -112.317 14.1416 -237.151 -42.6006 -338.51c-25.0303 -44.7168 -67.7871 -108.819 -126.281 -104.491c-61.1553 4.52832 -75.1406 79.6123 -70.8633 128.557c10.2871 117.604 89.334 221.853 172.229 301.844
c-4.87891 21.8828 -12.04 43.0576 -22.4346 62.4434c-14.1279 26.3535 -35.0381 51.0615 -64.2031 30.0439c-21.0029 -15.1367 -35.8535 -42.7207 -48.501 -64.7607c-56.1699 -97.8965 -77.6162 -215.88 -102.053 -324.836
c-7.35352 -32.8135 -52.3633 -35.0098 -68.7021 -8.97852c-28.5996 45.5684 -25.4883 112.418 -29.1299 164.389c-4.25684 60.7832 -6.20215 121.631 -6.53125 182.558c-0.658203 122.97 -3.06152 252.026 16.5752 373.665
c5.66602 35.0742 54.7324 22.3262 57.4727 -7.77637c10.3301 -113.642 -0.414062 -230.666 1.25977 -344.794c0.822266 -56.1338 2.78223 -112.296 6.17285 -168.337c22.2041 78.1162 48.7871 154.244 100.558 220.2c34.4082 43.8438 87.8594 74.7754 141.661 43.4141
c49.1094 -28.6211 73.4531 -92.1016 85.3711 -144.63zM348.695 -6.39844c19.0566 48.1865 27.3926 100.263 27.5498 151.933c0.00683594 3.55566 -0.0146484 7.13281 -0.0644531 10.7236c-63.5664 -69.9473 -129.83 -161.835 -109.729 -251.283
c3.65527 -16.2812 2.47461 -21.3887 16.1309 -13.749c11.2744 6.30273 22.0117 24.165 29.3008 34.4307c14.8789 20.9531 27.3691 44.0664 36.8115 67.9453z" />
    <glyph glyph-name="c" unicode="c" horiz-adv-x="328" 
d="M272.094 113.135c14.3574 23.5566 57.4219 7.61133 46.126 -19.4365c-31.3535 -75.041 -98.9043 -141.118 -186.985 -131.89c-93.1816 9.76465 -124.829 107.11 -118.441 188.053c6.91699 87.6162 41.2393 187 111.309 244.321
c31.2256 25.5449 72.0869 42.9209 111.653 26.2246c38.0713 -16.0596 54.8252 -54.9248 61.0771 -93.375c6.875 -42.3057 -49.6953 -58.7158 -64.5107 -17.7832c-10.4658 28.9219 -16.0459 55.8906 -50.6904 37.4062c-20.1797 -10.7734 -35.4385 -31.6689 -47.5205 -50.5186
c-29 -45.2314 -46.5693 -98.9619 -49.9746 -152.563c-3.06934 -48.3721 5.75781 -117.268 68.8096 -114.907c48.5293 1.80957 95.0986 45.0244 119.148 84.4688z" />
    <glyph glyph-name="d" unicode="d" horiz-adv-x="340" 
d="M359.008 -146.381c45.668 -6.08789 48.3867 -70.6211 0 -73.2607c-69.7617 -3.82031 -90.4355 86.6865 -101.373 139.322c-14.9219 71.8145 -21.9326 146.019 -26.5537 219.142c-0.615234 9.83594 -1.15137 19.665 -1.60938 29.4941
c-7.08887 -17.877 -15.0293 -35.3887 -24.0137 -52.3564c-19.3721 -36.5693 -45.9766 -82.1943 -83.0391 -103.354c-34.9307 -19.9512 -80.2695 -12.7832 -100.55 24.0508c-21.2676 38.6289 -14.6221 95.0918 -2.97656 135.538
c21.7686 75.6055 97.21 163.079 180.148 128.921c22.3477 100.3 28.9785 204.569 54.6172 304.09c9.24219 35.8896 70.3193 29.0654 65.8701 -8.91309c-15.0654 -128.585 -20.7598 -258.772 -15.209 -388.145c2.8252 -65.8623 7.94727 -131.725 17.2393 -197.008
c4.26367 -29.9229 9.11328 -59.8604 16.3672 -89.2256c3.05469 -12.3828 6.36719 -24.7803 10.5088 -36.8555c2.23926 -6.50977 15.6025 -32.1123 10.5732 -31.4395zM167.314 194.999c6.10156 15.4092 11.4385 31.0186 16.2383 46.7568
c-67.8369 16.2744 -105.5 -83.9971 -105.45 -138.5c0.0146484 -13.957 -3.31934 -37.0205 14.6289 -27.6426c11.7607 6.1377 22.3477 24.8652 29.6729 35.3311c18.1846 25.9814 33.2354 54.5889 44.9102 84.0547z" />
    <glyph glyph-name="e" unicode="e" horiz-adv-x="320" 
d="M266.296 174.855c12.1113 26.5967 58.0068 7.02539 47.1982 -19.8936c-33.8145 -84.1543 -124.729 -189.49 -226.709 -141.525c-101.767 47.8574 -83.1104 192.924 -40.9971 274.603c21.7109 42.1133 57.7148 87.252 105.829 99.4414
c44.3018 11.2236 90.1562 -16.375 104.013 -59.375c32.2549 -100.078 -85.1064 -181.771 -175.513 -161.62c-3.43359 -45.7822 6.72461 -98.9619 58.9883 -99.9561c58.0371 -1.10156 105.823 61.3848 127.19 108.326zM181.245 319.344
c-35.5244 17.3398 -69.6113 -46.499 -85.8574 -87.5674c21.9258 -0.600586 42.8926 1.5459 62.665 13.585c16.4961 10.0439 57.4219 57.2715 23.1924 73.9824z" />
    <glyph glyph-name="e" unicode="&#xeb;" horiz-adv-x="320" 
d="M266.296 174.855c12.1113 26.5967 58.0068 7.02539 47.1982 -19.8936c-33.8145 -84.1543 -124.729 -189.49 -226.709 -141.525c-101.767 47.8574 -83.1104 192.924 -40.9971 274.603c21.7109 42.1133 57.7148 87.252 105.829 99.4414
c44.3018 11.2236 90.1562 -16.375 104.013 -59.375c32.2549 -100.078 -85.1064 -181.771 -175.513 -161.62c-3.43359 -45.7822 6.72461 -98.9619 58.9883 -99.9561c58.0371 -1.10156 105.823 61.3848 127.19 108.326zM181.245 319.344
c-35.5244 17.3398 -69.6113 -46.499 -85.8574 -87.5674c21.9258 -0.600586 42.8926 1.5459 62.665 13.585c16.4961 10.0439 57.4219 57.2715 23.1924 73.9824z" />
    <glyph glyph-name="e" unicode="&#xea;" horiz-adv-x="320" 
d="M266.296 174.855c12.1113 26.5967 58.0068 7.02539 47.1982 -19.8936c-33.8145 -84.1543 -124.729 -189.49 -226.709 -141.525c-101.767 47.8574 -83.1104 192.924 -40.9971 274.603c21.7109 42.1133 57.7148 87.252 105.829 99.4414
c44.3018 11.2236 90.1562 -16.375 104.013 -59.375c32.2549 -100.078 -85.1064 -181.771 -175.513 -161.62c-3.43359 -45.7822 6.72461 -98.9619 58.9883 -99.9561c58.0371 -1.10156 105.823 61.3848 127.19 108.326zM181.245 319.344
c-35.5244 17.3398 -69.6113 -46.499 -85.8574 -87.5674c21.9258 -0.600586 42.8926 1.5459 62.665 13.585c16.4961 10.0439 57.4219 57.2715 23.1924 73.9824z" />
    <glyph glyph-name="e" unicode="&#xe9;" horiz-adv-x="320" 
d="M266.296 174.855c12.1113 26.5967 58.0068 7.02539 47.1982 -19.8936c-33.8145 -84.1543 -124.729 -189.49 -226.709 -141.525c-101.767 47.8574 -83.1104 192.924 -40.9971 274.603c21.7109 42.1133 57.7148 87.252 105.829 99.4414
c44.3018 11.2236 90.1562 -16.375 104.013 -59.375c32.2549 -100.078 -85.1064 -181.771 -175.513 -161.62c-3.43359 -45.7822 6.72461 -98.9619 58.9883 -99.9561c58.0371 -1.10156 105.823 61.3848 127.19 108.326zM181.245 319.344
c-35.5244 17.3398 -69.6113 -46.499 -85.8574 -87.5674c21.9258 -0.600586 42.8926 1.5459 62.665 13.585c16.4961 10.0439 57.4219 57.2715 23.1924 73.9824z" />
    <glyph glyph-name="f" unicode="f" horiz-adv-x="247" 
d="M305.797 580.834c16.2168 -26.5039 -20.5371 -53.0908 -42.0117 -32.4023c-52.5781 50.6826 -86.0137 -84.7549 -91.9443 -114.814c-7.85449 -39.8027 -10.6016 -80.4707 -10.6377 -121.139c17.5264 2.125 35.1025 3.96387 52.7217 5.48047
c42.0342 3.6123 41.8193 -62.1934 0 -65.5557c-16.9893 -1.36621 -33.8936 -3.17578 -50.7549 -5.22168c0.178711 -3.3125 0.329102 -6.63867 0.529297 -9.94336c8.28418 -136.54 26.4688 -272.586 37.9932 -408.896c4.00586 -47.3926 -68.3379 -46.1191 -73.2666 0
c-9.90723 92.6738 -18.3701 185.52 -26.9043 278.337c-3.96289 43.1426 -7.96191 86.4785 -10.1006 129.857c-17.5693 -3.05469 -35.1172 -6.32422 -52.6289 -9.97949c-39.9385 -8.33398 -57.0137 51.9844 -16.9395 61.4346
c22.5762 5.32227 45.2676 9.92188 68.0586 13.9346c0.114258 19.4502 0.729492 38.9004 2.16699 58.3291c5.30078 71.5498 16.7607 160.962 63.8379 218.462c38.7217 47.292 114.535 59.8682 149.881 2.11719z" />
    <glyph glyph-name="g" unicode="g" horiz-adv-x="418" 
d="M398.919 128.68c3.16211 -63.2373 2.74316 -127.442 -4.40332 -190.408c-12.2539 -107.854 -50.0742 -262.957 -161.698 -310.449c-48.2725 -20.5303 -102.969 -5.64355 -126.082 43.3652c-24.4727 51.8848 -23.042 121.41 -16.3037 176.907
c5.10742 42.0488 68.9746 44.667 67.7373 0c-1.05176 -37.8135 0.200195 -76.1641 7.68262 -113.334c2.125 -10.5518 3.81348 -30.002 13.9287 -36.54c13.4346 -8.67676 30.0732 3.67773 40.6387 12.2334c52.6357 42.6279 76.3281 119.049 89.5049 182.794
c11.9531 57.8291 15.1289 117.125 15.916 176.042c0.779297 58.9951 5.94434 128.635 -12.8555 185.377c-6.00195 18.1201 -7.14648 17.8057 -19.8945 4.60742c-9.22852 -9.5498 -17.6055 -19.958 -25.6465 -30.5166c-15.3154 -20.1162 -29.1006 -41.4053 -43.5078 -62.1787
c-28.6289 -41.2764 -59.418 -83.79 -100.708 -113.384c-37.127 -26.6045 -92.4092 -29.709 -109.971 21.4463c-16.832 49.0234 9.94336 107.01 35.5244 147.85c42.4492 67.7725 150.231 176.249 231.682 109.406c30.4385 16.6748 61.1631 13.6201 86.9941 -31.29
c28.1777 -48.9805 28.7217 -117.061 31.4619 -171.928zM152.482 183.388c16.1387 22.0332 43.8281 66.916 75.7188 103.206c-51.6123 -2.08887 -106.58 -79.9482 -126.152 -115.208c-7.94727 -14.3213 -15.3154 -29.2725 -18.8633 -45.3682
c-5.27246 -23.9072 -9.10645 -23.1348 10.8379 -7.25391c22.7197 18.0908 41.3906 41.3252 58.459 64.624z" />
    <glyph glyph-name="h" unicode="h" horiz-adv-x="412" 
d="M379.274 254.683c13.7344 -86.6504 15.7295 -174.654 16.1514 -262.199c0.228516 -47.4639 -72.9883 -47.3213 -73.6035 -0.000976562c-0.672852 51.627 -0.623047 103.304 -3.23438 154.874c-2.20996 43.6436 0.916016 101.187 -18.0264 141.562
c-12.5684 26.7969 -24.2568 10.2148 -38.5 -6.66016c-16.0811 -19.0645 -29.7012 -40.3887 -41.7266 -62.207c-20.9316 -37.9854 -36.1826 -78.6035 -48.9805 -119.951c-13.127 -42.4209 -22.8701 -170.963 -88.9258 -159.768
c-38.4863 6.52441 -41.8838 51.8135 -46.2471 82.7959c-5.79395 41.1475 -8.70508 82.502 -9.82812 124.021c-4.39941 163.158 -0.142578 338.148 44.2305 496.213c15.2158 54.1885 51.9561 145.589 126.475 108.776c64.1602 -31.6973 63.9385 -130.072 55.1611 -189.562
c-10.3652 -70.248 -32.3691 -145.188 -72.6221 -204.413c-14.8789 -21.9043 -38.7363 -59.1387 -68.1377 -62.0498c-2.94727 -0.292969 -5.7373 -0.286133 -8.38379 -0.0146484c-0.214844 -9.55664 -0.408203 -19.1064 -0.558594 -28.6426
c-0.722656 -46.7197 -0.507812 -93.5254 1.73828 -140.202c0.128906 -2.68945 0.34375 -5.37207 0.487305 -8.06152c10.6943 33.293 23.0488 66.0635 37.7637 97.8037c24.3291 52.457 66.1777 136.912 126.575 155.089c71.4854 21.5107 101.651 -63.5088 110.192 -117.403z
M123.928 547.712c-10.8662 -62.9229 -16.1445 -127.098 -18.8984 -191.2c1.98828 -0.543945 3.91309 -1.2168 5.6582 -2.21094c25.6885 24.5938 43 75.8418 52.4639 103.411c13.7852 40.167 24.6943 83.2246 28.1279 125.603
c1.74512 21.5176 1.67383 43.2715 -2.9541 64.4385c-4.71387 21.5967 -15.1299 55.5762 -33.3145 23.4785c-19.2363 -33.9648 -24.5371 -85.6416 -31.083 -123.52z" />
    <glyph glyph-name="i" unicode="i" horiz-adv-x="128" 
d="M98.5713 368.065c-6.93164 -133.328 -0.707031 -264.323 13.0205 -396.979c3.69824 -35.7393 -55.3975 -42.9854 -62.2432 -8.42676c-26.2539 132.584 -31.9766 270.848 -21.1963 405.405c3.58398 44.71 72.7871 45.5752 70.4189 0zM86.5469 482.788
c1.29492 -31.3613 -43.3652 -34.4951 -52.3643 -7.08984c-10.6016 32.2695 -9.98633 67.7793 -2.38965 100.614c3.62012 15.6309 21.4541 24.7734 36.4053 20.667c16.6748 -4.57812 23.084 -20.6162 20.666 -36.3965c-3.98438 -26.0244 -3.39746 -51.584 -2.31738 -77.7949z
" />
    <glyph glyph-name="i" unicode="&#xef;" horiz-adv-x="128" 
d="M98.5713 368.065c-6.93164 -133.328 -0.707031 -264.323 13.0205 -396.979c3.69824 -35.7393 -55.3975 -42.9854 -62.2432 -8.42676c-26.2539 132.584 -31.9766 270.848 -21.1963 405.405c3.58398 44.71 72.7871 45.5752 70.4189 0zM86.5469 482.788
c1.29492 -31.3613 -43.3652 -34.4951 -52.3643 -7.08984c-10.6016 32.2695 -9.98633 67.7793 -2.38965 100.614c3.62012 15.6309 21.4541 24.7734 36.4053 20.667c16.6748 -4.57812 23.084 -20.6162 20.666 -36.3965c-3.98438 -26.0244 -3.39746 -51.584 -2.31738 -77.7949z
" />
    <glyph glyph-name="i" unicode="&#xee;" horiz-adv-x="128" 
d="M98.5713 368.065c-6.93164 -133.328 -0.707031 -264.323 13.0205 -396.979c3.69824 -35.7393 -55.3975 -42.9854 -62.2432 -8.42676c-26.2539 132.584 -31.9766 270.848 -21.1963 405.405c3.58398 44.71 72.7871 45.5752 70.4189 0zM86.5469 482.788
c1.29492 -31.3613 -43.3652 -34.4951 -52.3643 -7.08984c-10.6016 32.2695 -9.98633 67.7793 -2.38965 100.614c3.62012 15.6309 21.4541 24.7734 36.4053 20.667c16.6748 -4.57812 23.084 -20.6162 20.666 -36.3965c-3.98438 -26.0244 -3.39746 -51.584 -2.31738 -77.7949z
" />
    <glyph glyph-name="i" unicode="&#xed;" horiz-adv-x="128" 
d="M98.5713 368.065c-6.93164 -133.328 -0.707031 -264.323 13.0205 -396.979c3.69824 -35.7393 -55.3975 -42.9854 -62.2432 -8.42676c-26.2539 132.584 -31.9766 270.848 -21.1963 405.405c3.58398 44.71 72.7871 45.5752 70.4189 0zM86.5469 482.788
c1.29492 -31.3613 -43.3652 -34.4951 -52.3643 -7.08984c-10.6016 32.2695 -9.98633 67.7793 -2.38965 100.614c3.62012 15.6309 21.4541 24.7734 36.4053 20.667c16.6748 -4.57812 23.084 -20.6162 20.666 -36.3965c-3.98438 -26.0244 -3.39746 -51.584 -2.31738 -77.7949z
" />
    <glyph glyph-name="j" unicode="j" horiz-adv-x="172" 
d="M148.649 139.524c4.29883 -74.4756 4.51465 -149.144 1.36035 -223.669c-2.71094 -63.9951 -7.99023 -128.42 -22.2617 -191.006c-12.6406 -55.4258 -31.877 -122.612 -87.7607 -148.901c-48.6299 -22.877 -103.526 0.944336 -130.596 45.0527
c-29.1436 47.4854 -23.9434 105.693 -11.2168 157.471c30.7529 125.187 103.197 232.403 177.787 335.293c-0.629883 22.5625 -1.47363 45.125 -2.7041 67.6514c-3.02637 55.4541 -11.3027 111.459 -11.2812 166.941c0.0146484 34.9805 51.5059 41.748 60.5977 8.19824
c18.7852 -69.332 21.9473 -145.61 26.0752 -217.031zM39.7158 -310.661c33.4639 99.4912 36.1309 209.465 37.1543 313.82c-38.0137 -55.6406 -72.3008 -114.121 -96.9229 -176.143c-17.29 -43.5508 -37.6416 -96.6016 -28.1777 -144.072
c4.32031 -21.7109 19.7295 -50.8047 46.5557 -46.291c23.6494 3.97754 34.8018 33.0996 41.3906 52.6855zM109.963 440.949c-4.57812 -23.8213 -34.8799 -21.7324 -46.583 -6.08789c-20.5381 27.4551 -16.4609 71.2637 -12.1621 103.068
c2.375 17.5693 24.9229 26.9473 40.1172 22.7764c17.9697 -4.94336 26.0322 -22.8271 22.7773 -40.1172c-4.98633 -26.4463 0.865234 -53.5508 -4.14941 -79.6396z" />
    <glyph glyph-name="k" unicode="k" horiz-adv-x="258" 
d="M209.704 153.03c43.0361 12.0391 57.8789 -50.0264 18.0479 -65.4707c-28.6211 -11.1025 -80.5557 -20.7812 -118.154 -10.2012c4.41406 -62.5146 9.51465 -124.994 15.252 -187.452c4.44922 -48.3506 -70.7275 -47.7637 -75.2773 0.000976562
c-24.1436 253.343 -31.2256 508.402 -25.9033 762.782c0.901367 43.1572 67.4297 43.2002 67.0645 0c-1.2373 -146.032 2.63281 -291.814 10.4229 -437.432c25.5596 28.7139 59.7324 52.5713 86.2363 70.9277c33.8652 23.4424 62.7295 -30.2373 31.6475 -54.1445
c-28.3135 -21.7822 -56.5059 -45.875 -75.1553 -76.75c-2.08887 -3.46191 -4.8291 -7.28906 -6.83203 -11.3164c0.514648 -0.114258 1.0293 -0.22168 1.6377 -0.415039c5.42285 -0.37207 10.8525 -0.443359 16.2891 -0.236328
c18.6992 0.636719 36.7695 4.68555 54.7246 9.70703z" />
    <glyph glyph-name="l" unicode="l" horiz-adv-x="139" 
d="M178.939 -144.735c39.6094 3.4834 47.2217 -60.418 9.28613 -68.666c-84.1543 -18.2988 -124.558 57.7578 -137.913 128.428c-16.2529 86.0068 -20.2656 173.58 -22.4404 260.882c-4.51367 181.228 -4.64258 364.444 6.5166 545.429
c2.48926 40.3389 60.3896 40.3535 62.707 0c8.69824 -151.562 6.00879 -303.854 8.59863 -455.609c1.28809 -75.3193 3.15527 -150.782 8.87793 -225.916c2.9834 -39.2012 7.4043 -78.3164 15.2012 -116.889c5.55859 -27.4766 13.1768 -70.8203 49.166 -67.6582z" />
    <glyph glyph-name="m" unicode="m" horiz-adv-x="470" 
d="M454.066 -48.1982c5.47266 -48.1289 -69.0664 -47.0469 -74.9395 -0.0126953c-16.0312 128.292 5.82324 259.803 -13.6133 387.336c-1.03711 6.57422 -2.48926 13.0557 -4.19141 19.4795c-0.329102 -0.264648 -0.615234 -0.514648 -0.994141 -0.800781
c-9.79297 -9.90723 -16.1738 -24.9512 -22.7334 -37.0264c-15.2441 -28.0781 -28.457 -57.2148 -40.2393 -86.9023c-22.0684 -55.626 -39.3945 -112.962 -57.4141 -169.99c-11.0098 -34.8594 -55.1475 -31.3398 -67.3945 0
c-9.15625 23.4209 -12.375 47.915 -13.9492 72.9023c-0.507812 7.99023 -0.750977 15.9805 -1.00879 23.9785c-8.47656 -13.8848 -15.9736 -28.3066 -21.9609 -43.4434c-12.0391 -30.4238 -19.8223 -61.0195 -36.0898 -89.7051
c-13.8135 -24.3652 -45.8545 -20.7666 -60.4258 0c-13.1191 18.6992 -11.3447 40.2461 -11.9102 62.2715l-2.08301 81.4014c-1.38086 54.2812 -4.19922 108.905 -2.68262 163.193c1.15918 41.5977 59.7607 40.0879 63.5449 -0.000976562
c4.4707 -47.3848 5.38672 -95.292 7.33984 -142.842c0.171875 -4.19922 0.34375 -8.3916 0.515625 -12.584c1.85254 3.62695 3.77637 7.18945 5.87207 10.6084c14.2783 23.2705 37.3486 64.0166 66.9141 69.5967c31.9473 6.03027 45.8252 -20.9746 51.126 -47.042
c12.7266 34.2871 26.3682 68.209 42.0342 101.251c20.5518 43.3506 68.8525 151.584 134.901 110.036c27.291 -17.1689 33.8223 -53.9453 37.8994 -83.1602c5.80859 -41.6055 7.4541 -83.8467 8.77734 -125.795c2.76855 -87.8027 2.76855 -175.348 12.7051 -262.75z" />
    <glyph glyph-name="n" unicode="n" horiz-adv-x="344" 
d="M330.405 17.4854c4.34961 -48.1357 -69.6045 -47.0391 -74.6123 -0.00488281c-5.38672 50.6475 -10.0225 101.373 -14.4502 152.12c-2.18945 25.0947 -4.14941 50.2178 -6.44531 75.3057c-0.987305 10.7441 -1.72363 21.6387 -3.32617 32.3262
c-16.625 -21.876 -33.4434 -63.5957 -38.3145 -74.2979c-14.7578 -32.4131 -25.7812 -66.4062 -36.3115 -100.371c-10.1934 -32.8779 -17.5762 -67.1221 -29.0078 -99.5566c-7.63965 -21.6611 -23.3135 -40.9902 -48.5586 -39.8389
c-64.8398 2.9541 -58.5156 114.392 -57.9717 157.163c0.972656 76.6211 2.33203 155.954 15.2588 231.61c5.85156 34.2295 54.3379 22.3906 56.6484 -7.66895c4.27734 -55.5684 0.400391 -112.225 0.207031 -167.937
c-0.0576172 -16.3604 -0.143555 -32.7422 -0.0292969 -49.1162c9.95801 29.3867 20.6602 58.502 32.7568 87.0801c18.957 44.7881 47.4707 120.208 96.7588 139.58c66.8926 26.2969 78.3887 -65.2109 83.5254 -108.969c8.88477 -75.6914 17.0186 -151.526 23.8721 -227.426z
" />
    <glyph glyph-name="o" unicode="o" horiz-adv-x="379" 
d="M356.461 303.605c26.7188 -5.24316 27.6855 -50.5352 0.000976562 -54.9629c-26.5615 -4.25684 -53.7383 -5.34375 -81 -5.05762c30.3096 -34.8809 52.5996 -75.8633 48.6865 -119.014c-7.2041 -79.4326 -96.0654 -114.084 -164.06 -123.698
c-75.5342 -10.6875 -168.229 14.3926 -150.997 108.834c13.9209 76.3066 77.7949 141.118 134.101 189.397c3.11914 2.67578 6.36719 4.67188 9.67188 6.0957c5.3584 7.92578 14.3643 13.1768 27.2979 12.2969c58.251 -3.94141 118.941 -2.63184 176.299 -13.8916z
M150.862 69.1309c35.1025 4.98633 114.471 23.7422 103.876 74.3105c-7.58301 36.2109 -43.3789 71.0625 -74.6826 95.8711c-32.0762 -27.1982 -61.0049 -58.5732 -82.2725 -94.9561c-8.34863 -14.2852 -30.5176 -47.7852 -20.8457 -65.0107
c10.6875 -19.0352 56.4775 -12.6904 73.9248 -10.2148z" />
    <glyph glyph-name="o" unicode="&#xf6;" horiz-adv-x="379" 
d="M356.461 303.605c26.7188 -5.24316 27.6855 -50.5352 0.000976562 -54.9629c-26.5615 -4.25684 -53.7383 -5.34375 -81 -5.05762c30.3096 -34.8809 52.5996 -75.8633 48.6865 -119.014c-7.2041 -79.4326 -96.0654 -114.084 -164.06 -123.698
c-75.5342 -10.6875 -168.229 14.3926 -150.997 108.834c13.9209 76.3066 77.7949 141.118 134.101 189.397c3.11914 2.67578 6.36719 4.67188 9.67188 6.0957c5.3584 7.92578 14.3643 13.1768 27.2979 12.2969c58.251 -3.94141 118.941 -2.63184 176.299 -13.8916z
M150.862 69.1309c35.1025 4.98633 114.471 23.7422 103.876 74.3105c-7.58301 36.2109 -43.3789 71.0625 -74.6826 95.8711c-32.0762 -27.1982 -61.0049 -58.5732 -82.2725 -94.9561c-8.34863 -14.2852 -30.5176 -47.7852 -20.8457 -65.0107
c10.6875 -19.0352 56.4775 -12.6904 73.9248 -10.2148z" />
    <glyph glyph-name="o" unicode="&#xf5;" horiz-adv-x="379" 
d="M356.461 303.605c26.7188 -5.24316 27.6855 -50.5352 0.000976562 -54.9629c-26.5615 -4.25684 -53.7383 -5.34375 -81 -5.05762c30.3096 -34.8809 52.5996 -75.8633 48.6865 -119.014c-7.2041 -79.4326 -96.0654 -114.084 -164.06 -123.698
c-75.5342 -10.6875 -168.229 14.3926 -150.997 108.834c13.9209 76.3066 77.7949 141.118 134.101 189.397c3.11914 2.67578 6.36719 4.67188 9.67188 6.0957c5.3584 7.92578 14.3643 13.1768 27.2979 12.2969c58.251 -3.94141 118.941 -2.63184 176.299 -13.8916z
M150.862 69.1309c35.1025 4.98633 114.471 23.7422 103.876 74.3105c-7.58301 36.2109 -43.3789 71.0625 -74.6826 95.8711c-32.0762 -27.1982 -61.0049 -58.5732 -82.2725 -94.9561c-8.34863 -14.2852 -30.5176 -47.7852 -20.8457 -65.0107
c10.6875 -19.0352 56.4775 -12.6904 73.9248 -10.2148z" />
    <glyph glyph-name="o" unicode="&#xf4;" horiz-adv-x="379" 
d="M356.461 303.605c26.7188 -5.24316 27.6855 -50.5352 0.000976562 -54.9629c-26.5615 -4.25684 -53.7383 -5.34375 -81 -5.05762c30.3096 -34.8809 52.5996 -75.8633 48.6865 -119.014c-7.2041 -79.4326 -96.0654 -114.084 -164.06 -123.698
c-75.5342 -10.6875 -168.229 14.3926 -150.997 108.834c13.9209 76.3066 77.7949 141.118 134.101 189.397c3.11914 2.67578 6.36719 4.67188 9.67188 6.0957c5.3584 7.92578 14.3643 13.1768 27.2979 12.2969c58.251 -3.94141 118.941 -2.63184 176.299 -13.8916z
M150.862 69.1309c35.1025 4.98633 114.471 23.7422 103.876 74.3105c-7.58301 36.2109 -43.3789 71.0625 -74.6826 95.8711c-32.0762 -27.1982 -61.0049 -58.5732 -82.2725 -94.9561c-8.34863 -14.2852 -30.5176 -47.7852 -20.8457 -65.0107
c10.6875 -19.0352 56.4775 -12.6904 73.9248 -10.2148z" />
    <glyph glyph-name="o" unicode="&#xf3;" horiz-adv-x="379" 
d="M356.461 303.605c26.7188 -5.24316 27.6855 -50.5352 0.000976562 -54.9629c-26.5615 -4.25684 -53.7383 -5.34375 -81 -5.05762c30.3096 -34.8809 52.5996 -75.8633 48.6865 -119.014c-7.2041 -79.4326 -96.0654 -114.084 -164.06 -123.698
c-75.5342 -10.6875 -168.229 14.3926 -150.997 108.834c13.9209 76.3066 77.7949 141.118 134.101 189.397c3.11914 2.67578 6.36719 4.67188 9.67188 6.0957c5.3584 7.92578 14.3643 13.1768 27.2979 12.2969c58.251 -3.94141 118.941 -2.63184 176.299 -13.8916z
M150.862 69.1309c35.1025 4.98633 114.471 23.7422 103.876 74.3105c-7.58301 36.2109 -43.3789 71.0625 -74.6826 95.8711c-32.0762 -27.1982 -61.0049 -58.5732 -82.2725 -94.9561c-8.34863 -14.2852 -30.5176 -47.7852 -20.8457 -65.0107
c10.6875 -19.0352 56.4775 -12.6904 73.9248 -10.2148z" />
    <glyph glyph-name="p" unicode="p" horiz-adv-x="421" 
d="M317.168 388.532c100.536 -3.55566 111.52 -113.156 78.2266 -186.967c-37.5127 -83.1885 -126.281 -133.456 -216.466 -120.809c-34.6377 -164.023 -40.0176 -331.28 -36.7129 -498.458c1.48828 -23.1348 2.91895 -46.2695 4.17773 -69.4111
c0.415039 -7.51855 -0.972656 -13.835 -3.60547 -19.0068c-2.94043 -7.59668 -9.72168 -12.8047 -17.4336 -15.0791c-21.5039 -7.86133 -52.0928 3.86328 -54.9111 34.0869c-13.3984 143.464 -20.416 287.794 -28.5352 431.638
c-8.1123 143.679 -18.8926 288.001 -20.9023 431.923c-0.59375 42.792 61.6201 41.1543 65.3896 0c9.59961 -104.771 15.3584 -210.042 21.6963 -315.178c8.80566 49.2588 20.3018 97.9102 36.0039 144.773c26.4111 78.8252 74.1035 185.985 173.072 182.487z
M314.896 195.822c21.1455 24.6367 57.5742 97.0596 20.2754 122.183c-39.8457 26.8477 -80.7998 -26.2598 -96.8594 -55.5967c-20.0371 -36.6045 -33.4219 -76.5859 -44.124 -116.918c46.1758 1.12988 89.0469 13.4482 120.708 50.332z" />
    <glyph glyph-name="q" unicode="q" horiz-adv-x="322" 
d="M320.033 -19.2773c39.0156 1.78809 38.4932 -57.9561 0.0146484 -60.3525c-8.29785 -0.514648 -16.5459 -0.757812 -24.8008 -0.972656c0.572266 -60.6338 3.87695 -121.296 13.6846 -182.115c7.4043 -45.9189 -60.6113 -66.6855 -71.1338 -19.6084
c-15.0156 67.1865 -19.9658 135.624 -20.4307 204.205c-8.28418 0.750977 -16.5684 1.53027 -24.874 2.60352c-31.9834 4.12793 -34.0654 50.4043 0 51.4697c8.44824 0.264648 16.9033 0.579102 25.3516 0.858398c0.25 11.0312 0.564453 22.0625 0.943359 33.0859
c1.68848 48.7227 4.94336 97.3809 7.37598 146.075c1.27344 25.4736 2.58301 50.9473 3.39844 76.4424c0.157227 4.77148 0.600586 10.2227 1.01562 15.9736c-9.75 -14.5293 -18.7988 -29.6094 -28.084 -43.5156c-18.9502 -28.3711 -37.9502 -56.7139 -59.4463 -83.2539
c-18.3203 -22.6191 -39.4014 -50.5469 -69.0811 -57.5859c-26.418 -6.25977 -51.9629 7.26074 -61.5059 32.6201c-21.2461 56.4561 24.2363 134.987 56.6279 178.753c30.7812 41.5908 89.7051 103.011 147.227 80.6484c6.98145 -2.71875 12.0889 -6.88184 15.5654 -11.7529
c11.0098 5.63672 23.3428 6.83887 36.7344 -0.987305c25.1445 -14.6934 27.1758 -53.6299 28.4707 -79.0674c4.84961 -95.2354 -0.31543 -189.905 -1.6748 -284.539c8.20508 0.350586 16.417 0.636719 24.6221 1.01562zM132.746 218.43
c17.5479 25.4521 34.3789 51.3701 52.4561 76.4287c-25.3594 -10.5947 -55.2754 -52.3643 -65.5762 -68.1445c-10.0439 -15.3945 -18.8926 -31.8623 -26.2754 -48.6875c-4.00586 -9.12109 -7.68945 -18.542 -10.2715 -28.2061
c20.3086 20.6953 38.2354 52.0273 49.667 68.6094z" />
    <glyph glyph-name="r" unicode="r" horiz-adv-x="292" 
d="M267.077 330.331c41.8125 -6.55273 24.8096 -73.7588 -17.7754 -64.5088c-9.14941 1.99609 -17.9766 6.14551 -27.0332 7.97656c-12.2969 2.48242 -8.14062 5.21484 -15.8311 -3.24805c-10.3154 -11.3525 -14.8652 -37.1406 -19.3223 -51.6914
c-11.5391 -37.6631 -20.1094 -76.3848 -29.3662 -114.656c-9.04883 -37.4131 -17.8545 -74.876 -26.7324 -112.325c-5.83691 -24.6006 -19.1426 -49.4736 -47.4639 -51.2266c-72.5801 -4.5 -57.0996 126.768 -57.2637 169.353
c-0.322266 82.9521 -3.88477 167.063 2.43945 249.83c3.09082 40.4678 58.4238 39.7236 62.373 0c6.10938 -61.4346 5.78711 -123.899 6.96777 -185.592l0.556641 -28.9717c8.0332 32.6484 15.8447 65.4258 26.0889 97.4238
c9.24219 28.8643 19.8291 68.1299 44.6592 87.8379c31.8838 25.3018 63.4521 5.16406 97.7031 -0.201172z" />
    <glyph glyph-name="s" unicode="s" horiz-adv-x="370" 
d="M339.417 48.4961c29.6016 -40.2598 39.0576 -89.0869 7.07422 -130.871c-27.5625 -36.0107 -74.4609 -56.0977 -119.307 -56.6914c-89.8916 -1.20215 -167.4 89.5186 -133.078 177.786c12.376 31.8262 59.7393 20.0654 51.8994 -14.3076
c-11.2021 -49.0664 18.8857 -97.9756 70.8203 -102.261c24.3867 -2.00977 50.7402 6.30273 68.5029 23.2275c25.2158 24.0361 10.666 46.5908 -8.85645 68.0156c-63.0439 69.1816 -163.286 85.6992 -230.322 149.201c-79.2471 75.0625 -29.0508 169.775 45.8398 224.063
c75.084 54.4316 179.297 65.0117 257.699 11.3955c35.5244 -24.2861 3.2334 -81.5283 -34.1006 -58.3438c-48.0723 29.8584 -104.07 31.1465 -154.252 5.06445c-38.0928 -19.7871 -106.509 -73.0596 -70.0615 -120.173c30.1094 -38.9297 93.5107 -59.6182 135.287 -83.3604
c42.5566 -24.1865 83.5537 -52.8867 112.854 -92.7461z" />
    <glyph glyph-name="t" unicode="t" horiz-adv-x="199" 
d="M190.788 476.292c39.8809 3.91992 39.7393 -58.7812 -0.00585938 -62.3721c-15.6094 -1.41602 -31.1973 -3.05371 -46.792 -4.60645c-2.93262 -55.1396 -4.98535 -110.329 -5.17871 -165.619c-0.243164 -68.459 1.87402 -136.782 7.5752 -205.02
c4.77148 -57.0635 2.82617 -134.086 36.3047 -182.615c19.8652 -28.793 -23.7139 -59.7178 -47.1348 -36.3682c-44.2656 44.1162 -47.7783 114.9 -55.7402 173.474c-9.75 71.7285 -14.6934 143.9 -16.2676 216.266c-1.3877 63.7949 -0.142578 127.69 2.63281 191.558
c-14.0566 -1.60938 -28.1279 -3.11133 -42.1699 -4.83496c-39.0801 -4.7998 -38.2793 56.0195 -0.000976562 61.0273c15.0938 1.98145 30.209 3.71973 45.3174 5.56543c3.7627 64.3174 8.81348 128.563 14.3936 192.58c4.23535 48.5078 79.7549 49.373 76.457 -0.000976562
c-4.08496 -61.2275 -8.64941 -122.412 -12.5264 -183.625c14.3789 1.53809 28.7432 3.17578 43.1357 4.5918z" />
    <glyph glyph-name="u" unicode="u" horiz-adv-x="379" 
d="M366.522 55.4277c4.65723 -46.2695 -67.293 -45.5996 -72.1074 -0.00292969c-3.16895 30.1162 -6.14453 60.2539 -8.8125 90.4199c-0.901367 10.1504 0.908203 44.1436 -2.86133 65.125c-20.6094 -14.4648 -43.4434 -50.5898 -52.3213 -62.3574
c-15.6162 -20.6953 -30.7461 -41.7764 -47.4854 -61.5986c-36.3252 -43.0146 -85.2344 -67.2656 -130.359 -19.9736c-38.4287 40.2812 -43.9658 107.01 -39.0654 159.409c3.36914 35.9893 13.377 103.189 64.7891 81.4424
c17.2617 -7.29688 15.3945 -25.7314 6.2168 -38.0215c-9.87891 -23.5283 -4.15625 -69.4756 -0.944336 -93.8193c1.55957 -11.8535 3.54785 -24.5078 7.87598 -35.7822c8.61328 -22.4336 15.5381 -28.0781 35.2744 -13.2275c20.9023 15.7236 36.2607 44.209 52.2637 64.876
c16.9111 21.8467 34.1152 43.6221 54.5391 62.3359c33.3496 30.5674 89.0469 48.501 108.604 -6.57422c8.87793 -25.0088 8.79883 -54.6748 12.0537 -80.9639c4.58496 -37.0479 8.60547 -74.1533 12.3398 -111.287z" />
    <glyph glyph-name="u" unicode="&#xfc;" horiz-adv-x="379" 
d="M366.522 55.4277c4.65723 -46.2695 -67.293 -45.5996 -72.1074 -0.00292969c-3.16895 30.1162 -6.14453 60.2539 -8.8125 90.4199c-0.901367 10.1504 0.908203 44.1436 -2.86133 65.125c-20.6094 -14.4648 -43.4434 -50.5898 -52.3213 -62.3574
c-15.6162 -20.6953 -30.7461 -41.7764 -47.4854 -61.5986c-36.3252 -43.0146 -85.2344 -67.2656 -130.359 -19.9736c-38.4287 40.2812 -43.9658 107.01 -39.0654 159.409c3.36914 35.9893 13.377 103.189 64.7891 81.4424
c17.2617 -7.29688 15.3945 -25.7314 6.2168 -38.0215c-9.87891 -23.5283 -4.15625 -69.4756 -0.944336 -93.8193c1.55957 -11.8535 3.54785 -24.5078 7.87598 -35.7822c8.61328 -22.4336 15.5381 -28.0781 35.2744 -13.2275c20.9023 15.7236 36.2607 44.209 52.2637 64.876
c16.9111 21.8467 34.1152 43.6221 54.5391 62.3359c33.3496 30.5674 89.0469 48.501 108.604 -6.57422c8.87793 -25.0088 8.79883 -54.6748 12.0537 -80.9639c4.58496 -37.0479 8.60547 -74.1533 12.3398 -111.287z" />
    <glyph glyph-name="u" unicode="&#xfb;" horiz-adv-x="379" 
d="M366.522 55.4277c4.65723 -46.2695 -67.293 -45.5996 -72.1074 -0.00292969c-3.16895 30.1162 -6.14453 60.2539 -8.8125 90.4199c-0.901367 10.1504 0.908203 44.1436 -2.86133 65.125c-20.6094 -14.4648 -43.4434 -50.5898 -52.3213 -62.3574
c-15.6162 -20.6953 -30.7461 -41.7764 -47.4854 -61.5986c-36.3252 -43.0146 -85.2344 -67.2656 -130.359 -19.9736c-38.4287 40.2812 -43.9658 107.01 -39.0654 159.409c3.36914 35.9893 13.377 103.189 64.7891 81.4424
c17.2617 -7.29688 15.3945 -25.7314 6.2168 -38.0215c-9.87891 -23.5283 -4.15625 -69.4756 -0.944336 -93.8193c1.55957 -11.8535 3.54785 -24.5078 7.87598 -35.7822c8.61328 -22.4336 15.5381 -28.0781 35.2744 -13.2275c20.9023 15.7236 36.2607 44.209 52.2637 64.876
c16.9111 21.8467 34.1152 43.6221 54.5391 62.3359c33.3496 30.5674 89.0469 48.501 108.604 -6.57422c8.87793 -25.0088 8.79883 -54.6748 12.0537 -80.9639c4.58496 -37.0479 8.60547 -74.1533 12.3398 -111.287z" />
    <glyph glyph-name="u" unicode="&#xfa;" horiz-adv-x="379" 
d="M366.522 55.4277c4.65723 -46.2695 -67.293 -45.5996 -72.1074 -0.00292969c-3.16895 30.1162 -6.14453 60.2539 -8.8125 90.4199c-0.901367 10.1504 0.908203 44.1436 -2.86133 65.125c-20.6094 -14.4648 -43.4434 -50.5898 -52.3213 -62.3574
c-15.6162 -20.6953 -30.7461 -41.7764 -47.4854 -61.5986c-36.3252 -43.0146 -85.2344 -67.2656 -130.359 -19.9736c-38.4287 40.2812 -43.9658 107.01 -39.0654 159.409c3.36914 35.9893 13.377 103.189 64.7891 81.4424
c17.2617 -7.29688 15.3945 -25.7314 6.2168 -38.0215c-9.87891 -23.5283 -4.15625 -69.4756 -0.944336 -93.8193c1.55957 -11.8535 3.54785 -24.5078 7.87598 -35.7822c8.61328 -22.4336 15.5381 -28.0781 35.2744 -13.2275c20.9023 15.7236 36.2607 44.209 52.2637 64.876
c16.9111 21.8467 34.1152 43.6221 54.5391 62.3359c33.3496 30.5674 89.0469 48.501 108.604 -6.57422c8.87793 -25.0088 8.79883 -54.6748 12.0537 -80.9639c4.58496 -37.0479 8.60547 -74.1533 12.3398 -111.287z" />
    <glyph glyph-name="v" unicode="v" horiz-adv-x="518" 
d="M481.183 487.315c30.624 -60.9053 22.8506 -146.089 15.5322 -211.536c-8.13379 -72.7588 -25.5674 -144.016 -51.5352 -212.403c9.19238 -12.9766 9.18555 -32.084 -8.95605 -43.2002c-3.64844 -2.23926 -7.29004 -4.13477 -10.917 -5.84473
c-24.1357 -55.833 -55.2031 -113.197 -106.208 -146.447c-56.499 -36.834 -122.14 -21.9834 -164.396 28.4414c-46.2764 55.2324 -68.0518 130.087 -85.1777 198.754c-20.2373 81.1426 -39.7598 162.321 -62.1289 242.92c-11.1592 40.21 47.8291 55.1035 61.5996 16.9824
c22.0254 -60.9766 41.2969 -122.755 58 -185.405c15.7451 -59.0312 29.208 -120.151 55.9551 -175.427c17.3398 -35.8389 48.9014 -94.4834 96.6152 -69.3242c32.8135 17.2969 54.918 52.7002 72.0723 87.5381c-36.2686 14.8369 -66.1846 50.8975 -82.502 88.4746
c-33.7148 77.6162 -46.9199 165.019 -36.7617 249.087c7.94043 65.6836 32.8271 137.219 89.4121 176.714c57.1143 39.8662 127.898 23.3203 159.396 -39.3232zM377.48 69.8643c39.2305 95.1133 60.4551 198.086 58.4668 301.04
c-0.737305 37.9355 -6.91797 143.486 -71.4854 105.909c-43.6367 -25.3955 -61.0771 -84.498 -67.0576 -131.246c-7.27539 -56.8848 -1.60938 -115.558 14.1572 -170.554c8.2334 -28.7285 28.9854 -95.7715 65.9189 -105.149z" />
    <glyph glyph-name="w" unicode="w" horiz-adv-x="639" 
d="M595.853 612.095c35.4814 -52.8145 38.8652 -124.147 36.7051 -185.696c-2.47559 -70.6982 -16.3604 -140.867 -37.1982 -208.347c-19.6797 -63.7236 -43.9873 -128.914 -77.7305 -186.657c-28.9863 -49.6025 -73.2881 -111.495 -136.604 -114.313
c-60.0898 -2.67578 -95.5283 47.8643 -117.354 97.1377c-14.4219 32.5557 -25.9102 66.2842 -32.8916 101.243c-2.25293 11.2881 -3.90527 22.6621 -5.45801 34.0508c-3.60547 -8.66992 -6.98926 -17.4258 -10.416 -26.167
c-9.51465 -24.293 -18.7354 -48.9443 -30.9248 -72.0576c-19.708 -37.3701 -59.0449 -75.8486 -100.593 -40.8252c-37.5635 31.6543 -43.9873 102.432 -49.7598 147.256c-8.30566 64.4531 -14.3359 129.414 -18.5635 194.254
c-2.21777 34.0078 54.1309 41.6836 59.6104 8.06934c12.4043 -76.1641 16.4463 -154.503 32.4912 -229.937c1.08691 -5.12891 10.208 -28.9072 15.7451 -45.4463c2.39648 3.97754 5.0791 7.99023 6.90332 11.624c15.6016 31.0967 25.7734 64.6465 40.3877 96.208
c15.4658 33.4141 62.6367 110.437 101.874 52.4854c15.9668 -23.5781 15.6953 -58.7305 20.0156 -85.7275c5.47949 -34.2656 14.25 -68.1309 27.3838 -100.301c9.39941 -23.0127 26.1748 -69.8545 56.1191 -71.6074c29.873 -1.74512 57.3857 42.4922 70.9414 63.6377
c15.3018 23.8711 28.3926 49.252 39.9883 75.3906c-117.833 39.7881 -122.025 247.47 -103.827 346.503c10.416 56.6846 32.292 123.277 77.3809 162.229c45.4893 39.3018 103.619 24.8516 135.774 -23.0059zM528.803 243.203
c19.8584 65.8701 32.9219 133.802 33.4082 202.769c0.257812 36.9551 -1.46582 75.6338 -15.9951 110.128c-5.39355 12.8115 -14.1279 33.1133 -30.0879 31.3818c-13.0195 -1.41602 -22.3115 -17.5684 -28.75 -27.5049
c-36.791 -56.8066 -46.7061 -132.062 -43.6162 -198.304c2.13867 -45.9043 12.7764 -152.964 67.8154 -171.62c6.16602 17.6689 11.8818 35.4453 17.2256 53.1504z" />
    <glyph glyph-name="x" unicode="x" horiz-adv-x="308" 
d="M301.289 376.214c-35.7246 -59.0879 -84.4385 -111.32 -123.433 -168.534c-0.0791016 -0.12207 -0.158203 -0.244141 -0.237305 -0.358398c25.3379 -52.7793 54.4453 -103.498 92.1299 -149.138c32.3701 -39.2158 -24.2715 -81.7725 -54.7744 -42.2637
c-30.5312 39.5518 -56.8418 81.8652 -80.0908 125.896c-23.2773 -36.9121 -45.668 -74.3613 -67.3359 -112.311c-21.8896 -38.3428 -80.0195 -4.14844 -59.0664 34.5303c27.8848 51.4629 58.6377 101.401 91.5801 149.81c-21.8184 49.0879 -40.8037 99.542 -58.2373 150.125
c-13.6992 39.7451 46.0762 53.5371 61.4346 16.9395c14.1924 -33.8076 27.8984 -68.0518 42.2695 -102.003c33.1064 46.8555 68.6025 95.585 111.259 131.646c23.6064 19.958 61.9785 -5.42285 44.502 -34.3379z" />
    <glyph glyph-name="y" unicode="y" horiz-adv-x="399" 
d="M375.362 176.107c10.5225 -127.348 -1.34766 -260.049 -25.1758 -385.379c-15.1865 -79.8477 -56.0332 -275.39 -175.476 -250.603c-112.775 23.3994 -113.498 193.961 -114.765 281.334c-0.665039 46.1045 69.2246 45.582 71.2559 0
c2.63281 -59.0957 2.39648 -127.948 32.2764 -180.984c13.9854 -24.8301 30.2959 -33.3428 49.918 -8.98535c18.8213 23.3633 30.0166 53.0859 39.0869 81.3281c34.6445 107.861 47.6641 223.892 52.5566 336.695c2.52539 58.1582 1.76758 116.925 -6.28027 174.654
c-2.22461 15.9521 -5.01465 31.8115 -8.43359 47.5566c-1.60254 7.375 -6.28125 18.3271 -8.5127 27.8125c-0.665039 -0.84375 -1.36621 -1.73047 -2.23926 -2.88184c-7.22461 -9.56445 -13.834 -19.6299 -20.2939 -29.7168
c-35.1807 -54.9316 -95.3633 -207.896 -183.28 -179.689c-43.2861 13.8848 -52.4502 67.3291 -58.2949 105.944c-7.83301 51.7559 -6.09473 103.912 6.75977 154.738c10.0938 39.917 65.1045 21.7324 59.8184 -16.4893
c-5.41504 -39.166 -6.75977 -78.8535 -0.743164 -118.041c1.38086 -9.01367 3.94922 -44.4668 12.1904 -51.2988c9.59277 -7.95508 25.9746 18.4268 32.8633 28.0693c36.7188 51.3623 62.4717 109.878 102.624 158.93c31.3467 38.2998 83.4463 51.1475 109.965 0.149414
c25.7529 -49.5166 29.6514 -118.348 34.1797 -173.144z" />
    <glyph glyph-name="y" unicode="&#xff;" horiz-adv-x="399" 
d="M375.362 176.107c10.5225 -127.348 -1.34766 -260.049 -25.1758 -385.379c-15.1865 -79.8477 -56.0332 -275.39 -175.476 -250.603c-112.775 23.3994 -113.498 193.961 -114.765 281.334c-0.665039 46.1045 69.2246 45.582 71.2559 0
c2.63281 -59.0957 2.39648 -127.948 32.2764 -180.984c13.9854 -24.8301 30.2959 -33.3428 49.918 -8.98535c18.8213 23.3633 30.0166 53.0859 39.0869 81.3281c34.6445 107.861 47.6641 223.892 52.5566 336.695c2.52539 58.1582 1.76758 116.925 -6.28027 174.654
c-2.22461 15.9521 -5.01465 31.8115 -8.43359 47.5566c-1.60254 7.375 -6.28125 18.3271 -8.5127 27.8125c-0.665039 -0.84375 -1.36621 -1.73047 -2.23926 -2.88184c-7.22461 -9.56445 -13.834 -19.6299 -20.2939 -29.7168
c-35.1807 -54.9316 -95.3633 -207.896 -183.28 -179.689c-43.2861 13.8848 -52.4502 67.3291 -58.2949 105.944c-7.83301 51.7559 -6.09473 103.912 6.75977 154.738c10.0938 39.917 65.1045 21.7324 59.8184 -16.4893
c-5.41504 -39.166 -6.75977 -78.8535 -0.743164 -118.041c1.38086 -9.01367 3.94922 -44.4668 12.1904 -51.2988c9.59277 -7.95508 25.9746 18.4268 32.8633 28.0693c36.7188 51.3623 62.4717 109.878 102.624 158.93c31.3467 38.2998 83.4463 51.1475 109.965 0.149414
c25.7529 -49.5166 29.6514 -118.348 34.1797 -173.144z" />
    <glyph glyph-name="y" unicode="&#xfd;" horiz-adv-x="399" 
d="M375.362 176.107c10.5225 -127.348 -1.34766 -260.049 -25.1758 -385.379c-15.1865 -79.8477 -56.0332 -275.39 -175.476 -250.603c-112.775 23.3994 -113.498 193.961 -114.765 281.334c-0.665039 46.1045 69.2246 45.582 71.2559 0
c2.63281 -59.0957 2.39648 -127.948 32.2764 -180.984c13.9854 -24.8301 30.2959 -33.3428 49.918 -8.98535c18.8213 23.3633 30.0166 53.0859 39.0869 81.3281c34.6445 107.861 47.6641 223.892 52.5566 336.695c2.52539 58.1582 1.76758 116.925 -6.28027 174.654
c-2.22461 15.9521 -5.01465 31.8115 -8.43359 47.5566c-1.60254 7.375 -6.28125 18.3271 -8.5127 27.8125c-0.665039 -0.84375 -1.36621 -1.73047 -2.23926 -2.88184c-7.22461 -9.56445 -13.834 -19.6299 -20.2939 -29.7168
c-35.1807 -54.9316 -95.3633 -207.896 -183.28 -179.689c-43.2861 13.8848 -52.4502 67.3291 -58.2949 105.944c-7.83301 51.7559 -6.09473 103.912 6.75977 154.738c10.0938 39.917 65.1045 21.7324 59.8184 -16.4893
c-5.41504 -39.166 -6.75977 -78.8535 -0.743164 -118.041c1.38086 -9.01367 3.94922 -44.4668 12.1904 -51.2988c9.59277 -7.95508 25.9746 18.4268 32.8633 28.0693c36.7188 51.3623 62.4717 109.878 102.624 158.93c31.3467 38.2998 83.4463 51.1475 109.965 0.149414
c25.7529 -49.5166 29.6514 -118.348 34.1797 -173.144z" />
    <glyph glyph-name="z" unicode="z" horiz-adv-x="305" 
d="M152.563 115.968c-11.2598 -12.4326 -22.3154 -25.1143 -32.2734 -38.627c-14.3711 -19.4932 -15.0576 -27.8701 11.8184 -29.6445c36.082 -2.375 73.1299 12.2109 106.744 23.6279c43.0928 14.6357 61.3555 -53.3516 18.7207 -67.9023
c-56.8564 -19.4004 -136.818 -46.791 -191.171 -6.93164c-55.8408 40.9473 -19.9941 99.5488 14.0137 140.159c22.1689 26.4756 46.7988 50.6973 71.4209 74.8545c11.6172 11.3955 23.2842 22.7549 34.7295 34.3291c10.2871 10.4082 31.9834 25.917 37.7061 39.7949
c4.35645 10.5654 8.22656 7.34668 -4.21387 12.2109c-7.74023 3.02637 -19.0566 1.48145 -27.2188 1.30957c-17.8193 -0.386719 -35.5029 -2.13184 -53.0508 -5.25781c-34.7021 -6.16602 -66.75 -18.7852 -99.6709 -30.7529
c-31.0752 -11.2959 -48.8594 36.2109 -21.8975 51.9414c56.0117 32.6846 128.706 48.7373 193.467 45.7686c54.2598 -2.48242 107.625 -39.2871 74.7549 -97.3594c-31.9189 -56.4053 -90.7998 -99.9707 -133.879 -147.521z" />
    <glyph glyph-name="braceleft" unicode="{" horiz-adv-x="603" 
d="M510.446 -242.182c43.2646 12.0605 60.4678 -52.9873 18.4053 -66.7646c-139.594 -45.7686 -248.163 79.9902 -276.326 203.896c-17.6621 77.7236 -12.8115 157.399 -20.9736 236.139c-2.75391 26.5322 -7.3252 58.9521 -25.6387 79.8115
c-25.7314 29.3076 -68.8242 17.4824 -99.5205 3.54004c-43.6436 -19.8223 -79.5186 38.3643 -38.0566 65.1113c113.849 73.4453 170.562 202.738 225.68 321.079c35.7031 76.6572 114.378 283.938 234.4 203.998c27.2764 -18.1699 2.58984 -61.5557 -25.8955 -44.3018
c-51.5059 31.1963 -98.7549 -86.3008 -114.285 -118.499c-26.9971 -55.9766 -50.2529 -113.67 -76.957 -169.782c-29.7373 -62.5 -64.8252 -122.311 -109.692 -173.658c20.7666 -5.61523 40.2744 -16.5312 57.1494 -34.6729
c43.9229 -47.2275 47.3633 -118.341 50.5107 -179.117c4.11328 -79.5117 1.81738 -164.753 38.6221 -237.719c30.1875 -59.8535 92.7949 -108.519 162.578 -89.0605z" />
    <glyph glyph-name="verticalbar" unicode="|" horiz-adv-x="199" 
d="M149.1 776.79c-23.4346 -351.89 -46.043 -705.633 -10.2969 -1057.53c4.78613 -47.1494 -69.3887 -46.9775 -73.7734 0c-32.8916 352.412 -5.53613 705.79 22.3701 1057.53c3.11914 39.2803 64.3467 39.7598 61.7002 0z" />
    <glyph glyph-name="braceright" unicode="}" horiz-adv-x="539" 
d="M470.128 338.943c39.2803 -21.9971 10.2871 -73.8018 -28.4775 -67.5713c-5.50098 0.886719 -10.8086 2.11719 -16.0088 3.5332c-17.2324 -7.18945 -45.0742 -54.0879 -49.3232 -62.3291c-13.041 -25.2666 -20.6377 -52.9434 -25.8096 -80.7988
c-12.2686 -66.0703 -9.83594 -134.144 -19.0498 -200.686c-12.2686 -88.6328 -48.7734 -276.979 -169.268 -273.717c-47.7861 1.29492 -47.8506 73.6748 -0.000976562 74.2754c31.0889 0.393555 48.4717 47.7861 58.458 71.5361
c13.3555 31.7549 22.7764 65.1836 29.7725 98.877c14.6006 70.3193 13.2061 142.127 22.291 213.111c7.83984 61.2559 24.6504 121.882 62.7646 171.577c6.83203 8.90625 14.5723 17.7842 23.042 25.9316c-53.0439 48.3721 -82.7021 128.234 -102.825 192.438
c-23.9004 76.2285 -41.334 296.629 -169.861 254.96c-30.5674 -9.91504 -50.7256 37.7988 -21.8965 51.9414c48.4004 23.7354 100.113 13.4199 142.162 -18.9932c44.9453 -34.6445 66.2705 -88.582 81.0352 -141.683c18.0488 -64.9043 33.4004 -130.295 61.1201 -192.03
c19.7793 -44.0518 45.0811 -92.6387 90.749 -110.637c10.2227 -0.830078 20.6387 -3.86328 31.126 -9.73633z" />
    <glyph glyph-name="nonbreakingspace" unicode="&#xa0;" horiz-adv-x="218" 
 />
    <glyph glyph-name="exclamdown" unicode="&#xa1;" horiz-adv-x="228" 
d="M77.4014 370.841c4.22754 44.9316 74.6836 45.4609 70.7559 0c-9.17773 -106.28 -17.4902 -212.632 -23.3633 -319.155c-5.67969 -103.047 -12.876 -206.15 -1.61621 -309.025c3.73438 -34.1152 -52.3564 -40.7461 -59.2812 -8.01855
c-21.3965 101.101 -12.8623 207.667 -8.3916 310.099c4.75 108.855 11.7031 217.61 21.8965 326.101zM145.676 605.298c16.1885 0 34.3164 -15.001 32.4492 -32.4482c-1.69531 -15.7803 -3.59863 -31.5322 -5.55176 -47.2842
c-1.4668 -11.8682 -5.00098 -25.6533 -5.4375 -37.957c4.32812 -19.665 -11.7812 -40.6396 -37.1123 -36.1328c-0.744141 0.135742 -1.48828 0.264648 -2.23242 0.400391c-10.7656 1.91016 -18.5342 12.04 -21.7246 21.7256
c-4.9502 15.0293 -0.329102 33.2061 1.34473 48.5859c1.83887 16.9043 3.70605 33.8008 5.82324 50.6689c2.18945 17.4619 13.0986 32.4414 32.4414 32.4414z" />
    <glyph glyph-name="cent" unicode="&#xa2;" horiz-adv-x="490" 
d="M388.728 141.842c8.99219 31.998 58.5859 18.3701 49.8018 -13.7354c-19.8867 -72.623 -83.1025 -156.04 -158.279 -190.764c0.0576172 -16.7891 0.236328 -33.6143 0.550781 -50.4893c0.793945 -42.4131 -59.4961 -39.8662 -64.2178 0
c-1.34473 11.3174 -2.36816 22.6768 -3.25488 34.0508c-91.6436 -1.88184 -146.153 88.9395 -158.314 170.69c-15.4727 104.013 6.14551 212.289 47.1494 308.161c30.1807 70.5479 85.3486 167.335 165.897 190.569c3.85547 45.6035 6.74512 91.2861 7.77539 137.133
c0.879883 39.1582 61.4131 39.2012 60.8623 0c-0.636719 -45.1104 -3.08301 -90.085 -6.4668 -134.98c77.8945 -19.665 89.8838 -129.979 89.583 -202.28c-0.193359 -45.6182 -68.1875 -45.0098 -70.4189 0c-1.4375 29.043 1.75293 100.757 -25.8594 124.557
c-6.81738 -69.3682 -15.3018 -138.593 -23.1631 -207.875c-11.3525 -100.042 -17.7188 -198.789 -19.543 -298.352c12.4258 8.2627 23.9219 17.541 33.8506 25.875c34.8594 29.2656 61.5996 63.1377 74.0469 107.439zM235.976 306.881
c7.96875 65.3262 16.4395 130.609 23.5859 196c-16.3389 -14.0635 -30.4814 -32.3125 -39.1377 -43.6719c-52.1855 -68.4736 -82.3877 -157.378 -93.7188 -242.055c-9.39258 -70.1758 -14.7148 -204.841 73.8535 -229.621
c3.2832 -0.916016 6.58105 -1.45215 9.88574 -1.82422c-1.36621 107.26 12.7051 216.015 25.5312 321.172z" />
    <glyph glyph-name="sterling" unicode="&#xa3;" horiz-adv-x="421" 
d="M327.577 30.1465c43.5938 11.624 61.9521 -55.5664 18.5947 -67.4199c-59.5537 -16.2744 -119.171 -32.334 -178.631 -48.959c-34.0225 -9.50684 -92.2305 -29.9873 -97.6738 24.8164c-2.47559 24.9014 8.16211 54.0518 13.2988 78.2734
c6.28125 29.6152 11.6396 59.3672 16.0029 89.3262c6.23828 42.8496 10.6094 85.9424 15.3525 128.985c-8.62012 -1.67383 -17.2549 -3.26953 -25.8604 -5.06543c-38.8076 -8.08301 -55.3828 50.7617 -16.4463 59.6611c16.5889 3.79102 33.2139 7.36035 49.8672 10.7363
c10.501 91.2646 22.0186 197.201 84.8477 266.505c25.7451 28.3994 64.1738 50.418 103.669 43.5078c46.0117 -8.05469 59.3389 -46.6406 58.5088 -88.5244c-0.658203 -32.9131 -49.0381 -32.4766 -50.8047 0.000976562c-2.54688 46.834 -48.0723 17.1758 -63.9033 -2.46094
c-15.9453 -19.7793 -25.4307 -44.6025 -32.9277 -68.6025c-13.835 -44.2734 -20.3018 -90.8145 -25.4951 -137.02c26.5186 4.36328 53.0938 8.3623 79.7979 11.6816c41.6621 5.17871 41.5908 -60.8271 0 -65.5557c-29.0508 -3.30469 -57.958 -7.26074 -86.7793 -11.7529
c-4.72168 -46.083 -9.26465 -92.1875 -15.2383 -138.128c-3.72656 -28.6357 -7.89746 -57.207 -13.1699 -85.5996c-2.36816 -12.7549 -6.45312 -26.7686 -10.0518 -40.8828c5.50781 1.15918 10.1572 2.01758 11.8311 2.46094
c18.3701 4.82129 36.7188 9.74316 55.0752 14.6436c36.7119 9.78613 73.4238 19.5791 110.136 29.3721z" />
    <glyph glyph-name="currency" unicode="&#xa4;" horiz-adv-x="661" 
d="M560.528 166.936c11.2744 30.252 59.0566 18.1924 49.1562 -13.5479c-30.5166 -97.6816 -95.9639 -183.202 -187.343 -231.367c-42.5488 -22.4268 -93.0527 -36.6982 -140.352 -21.2393c-43.8369 14.3281 -74.2969 51.6914 -90.6357 93.5322
c-14.708 37.6709 -21.2607 79.7764 -21.9688 122.654c-24.5869 -4.76465 -48.916 -10.7666 -72.873 -17.9844c-4.1709 -4.15625 -9.93652 -6.63867 -17.1396 -5.98047c-8.54102 0.779297 -15.2725 2.63965 -21.417 9.12109
c-7.54688 7.96191 -11.252 22.7695 -4.17676 32.3623c22.6621 30.7383 80.2695 39.0361 118.562 46.0107c2.08203 19.2363 5.15137 38.25 9.02148 56.7422c-30.0303 -5.80859 -60.0752 -13.1621 -90.4561 -20.3154c-35.7393 -8.41992 -50.3467 44.4951 -15.1514 54.9678
c39.9023 11.875 81.1494 22.7412 122.848 29.6084c27.999 85.5566 78.0742 180.756 157.407 227.525c39.2871 23.1631 88.8965 32.4844 127.49 3.00488c37.5205 -28.6572 44.5098 -75.5986 47.5215 -119.829c3.06152 -44.917 -65.4697 -43.9297 -69.4111 0
c-1.67383 18.6562 -2.55371 52.4785 -22.2617 63.0586c-18.3779 9.86426 -45.0107 -10.0293 -58.8887 -20.8955c-31.1963 -24.415 -54.1807 -57.9219 -73.5381 -92.0586c-9.75781 -17.2109 -18.3711 -35.0518 -25.9326 -53.3438
c31.8047 0.164062 63.5303 -3.17676 94.791 -11.3965c37.6777 -9.90723 21.6748 -67.1855 -16.0459 -58.2012c-33.7432 8.04102 -66.7715 9.97949 -99.499 8.21973c-4.87109 -18.292 -8.73438 -36.8408 -11.4883 -55.5547c29.873 3.02637 59.8896 4.39258 90.0205 4.12109
c41.8193 -0.365234 41.7334 -65.7842 0 -64.8828c-31.6973 0.679688 -63.5166 -0.486328 -95.1709 -3.5127c-0.0927734 -6.8457 -0.0996094 -13.6846 0.09375 -20.5303c1.15137 -40.9111 4.21289 -91.6797 33.7217 -123.27
c35.0742 -37.5557 88.2539 -20.1299 127.24 1.35938c71.335 39.3301 127.469 105.4 155.875 181.621z" />
    <glyph glyph-name="yen" unicode="&#xa5;" horiz-adv-x="557" 
d="M476.228 226.261c41.5264 -1.5957 41.7666 -65.3398 0.00390625 -64.7178c-24.2861 0.357422 -48.4082 0 -72.4443 -1.2373c-1.03027 -4.07031 -2.00293 -8.15527 -3.06836 -12.2188c14.3145 1.31641 28.5498 2.41113 42.5205 3.34082
c42.4639 2.8252 42.5566 -64.2031 0 -66.2275c-21.1104 -1.00195 -41.8203 -3.2334 -62.3721 -6.06641c-21.7178 -69.4111 -48.2285 -137.37 -79.1748 -203.019c-20.6094 -43.7227 -84.834 -5.57324 -64.7109 37.8271c23.0342 49.6816 43.6719 100.343 61.8486 151.841
c-10.3223 -1.78125 -20.6738 -3.54102 -31.1113 -5.19336c-37.9854 -6.01562 -52.6504 44.4238 -15.96 57.8799c22.5977 8.29102 46.3975 14.4072 70.6689 19.0498c1.52344 5.06445 2.86133 10.1934 4.32812 15.2793c-9.30664 -1.36621 -18.6133 -2.85449 -27.9199 -4.59961
c-38.6865 -7.26758 -55.4473 51.1553 -16.4033 59.4961c20.4736 4.37109 41.0684 8.01953 61.7422 10.9951c4.59277 19.2148 8.94238 38.501 12.7412 57.9375c12.4834 63.8242 20.4238 129.494 19.0146 194.627c-0.314453 14.5293 1.96777 41.334 -6.22266 53.7598
c-9.00586 13.6631 5.88086 15.6377 -14.4355 4.5c-20.1875 -11.0664 -38.4795 -40.0664 -51.585 -58.5225c-37.7354 -53.1289 -114.743 -226.81 -203.004 -172.922c-39.3018 24 -46.8271 79.5762 -49.8672 121.038c-4.07031 55.5898 7.36133 109.263 29.0361 160.188
c14.4434 33.9219 72.4727 9.02051 59.4531 -25.0664c-20.7881 -54.417 -32.6416 -121.688 -12.1973 -178.395c2.41797 -6.70996 5.89453 -16.8398 9.74316 -16.1748c8.98438 1.54492 23.5557 24.2363 29.2139 31.3545c16.2383 20.416 30.2803 42.5205 44.4727 64.3818
c31.6689 48.751 139.294 219.885 207.303 125.802c30.6318 -42.3779 26.9688 -113.685 25.2021 -162.958c-2.25293 -62.9512 -10.7441 -125.902 -23.1338 -187.63c-0.322266 -1.58105 -0.708984 -3.14062 -1.03125 -4.72168
c19.0781 0.886719 38.1924 1.1084 57.3496 0.371094z" />
    <glyph glyph-name="section" unicode="&#xa7;" horiz-adv-x="577" 
d="M524.801 111.883c-4.9502 -26.7686 -38.6201 -79.3047 -74.1875 -100.536c20.1084 -31.7334 31.0391 -67.916 24.8438 -108.935c-13.8066 -91.4863 -110.651 -149.702 -195.399 -162.063c-90.4854 -13.1914 -183.095 26.2607 -225.694 109.271
c-20.9023 40.7324 38.8799 76.2637 61.6709 36.0537c48.7295 -85.9639 160.203 -92.5449 237.34 -40.9893c35.9541 24.0283 61.7285 62.0205 47.2715 106.079c-13.7344 41.8408 -51.1045 71.4346 -85.9492 95.3994c-59.4316 40.8828 -154.059 90.1924 -146.555 175.541
c4.29199 48.8301 42.1914 99.291 88.8896 125.595c-23.4209 23.793 -42.7715 51.084 -54.1387 84.9414c-56.2129 167.485 98.375 316.716 261.039 307.581c42.7852 -2.40332 43.3076 -66.335 0 -66.9004c-89.5762 -1.17285 -180.483 -53.1436 -194.54 -148.078
c-14.6865 -99.1836 65.1826 -149.709 134.937 -201.015c67.5361 -49.667 137.462 -120.015 120.473 -211.944zM452.223 94.999c10.6514 20.6309 10.4512 43.6074 3.44043 65.4189c-14.1494 43.9727 -51.6768 74.9258 -87.9453 100.743
c-18.499 13.1699 -37.499 26.125 -55.877 39.71c-37.8711 -17.2256 -81.4434 -56.334 -73.124 -94.7842c8.84863 -40.9043 70.791 -70.4268 102.288 -91.5586c23.5996 -15.8311 47.9072 -34.0439 69.3535 -54.7754c2.74023 0.0146484 5.4873 -0.385742 8.16992 -1.20801
c13.3418 5.84473 28.6006 26.5898 33.6943 36.4541z" />
    <glyph glyph-name="copyright" unicode="&#xa9;" horiz-adv-x="934" 
d="M829.802 661.925c106.001 -183.731 41.6045 -404.726 -67.959 -570.81c-52.3564 -79.3613 -117.762 -152.478 -199.369 -202.538c-79.5332 -48.7803 -188.06 -82.7451 -277.472 -41.8838c-93.375 42.6777 -134.458 143.371 -147.134 239.235
c-15.0225 113.605 -4.7998 229.672 25.7031 339.922c12.9336 46.7559 84.5117 26.9551 72.5869 -20.0146c-25.874 -101.916 -36.0889 -210.142 -21.374 -314.733c12.1895 -86.665 57.3926 -188.768 159.474 -187.172c156.691 2.44629 279.511 145.481 352.055 269.409
c81.3926 139.043 128.513 316.43 41.0176 464.136c-38.8076 65.5117 -100.178 113.354 -176.034 126.553c-84.4766 14.708 -173.03 -12.626 -245.273 -55.626c-64.4531 -38.3643 -120.415 -91.5576 -162.535 -153.601c-23.1631 -34.1152 -42.6133 -70.877 -57.0566 -109.514
c-12.7266 -34.0146 -41.377 -99.1475 -3.19824 -125.522c27.2188 -18.7998 1.66602 -63.4521 -26.1465 -44.7314c-93.9473 63.2305 -25.5381 206.53 18.0488 281.714c51.8271 89.3906 128.299 165.59 219.12 215.171c87.5732 47.8066 192.144 72.207 290.741 48.8721
c87.8379 -20.7881 160.175 -81.5146 204.806 -158.866zM465.415 453.721c-33.1426 -36.2188 -58.7012 -80.4414 -77.2646 -125.752c-16.0449 -39.1445 -44.9668 -125.18 -2.02441 -158.78c39.4014 -30.8242 117.01 25.7676 150.968 45.082
c35.7607 20.3379 64.3604 -31.3535 31.7334 -54.2881c-60.5264 -42.542 -165.998 -104.448 -234.078 -42.1768c-67.0576 61.334 -45.2822 166.176 -14.1357 239.378c31.8975 74.9688 79.2686 145.538 147.284 192.222c61.6924 42.3486 163.029 59.5674 188.288 -31.3467
c8.91309 -32.0977 -37.7061 -43.5576 -48.9873 -13.5059c-13.5986 36.2402 -66.2773 10.3301 -86.0068 -2.47461c-20.6953 -13.4199 -39.1582 -30.209 -55.7764 -48.3574z" />
    <glyph glyph-name="softhyphen" unicode="&#xad;" 
 />
    <glyph glyph-name="registered" unicode="&#xae;" horiz-adv-x="1042" 
d="M979.145 662.776c52.1562 -216.115 -65.4131 -439.263 -201.345 -600.196c-65.5625 -77.6162 -146.404 -146.226 -239.729 -187.881c-90.4424 -40.3672 -204.971 -57.3564 -290.72 3.62793c-90.2988 64.2246 -112.554 178.138 -111.838 282.386
c0.830078 121.023 23.0986 241.661 64.8896 355.145c16.4033 44.5518 87.6602 25.917 71.9434 -19.8369c-37.835 -110.179 -59.8389 -225.172 -59.8535 -341.875c-0.0146484 -97.2949 26.2461 -219.056 139.837 -237.548c83.9824 -13.6709 169.339 28.1348 236.696 74.0967
c70.3408 48.0078 130.252 111.925 179.769 180.856c104.62 145.639 197.931 338.197 130.737 518.846c-68.3525 183.753 -286.836 233.721 -457.434 176.836c-158.644 -52.9004 -333.29 -214.449 -328.633 -393.882c1.06543 -40.8613 -62.3506 -40.7109 -63.374 0
c-2.97559 118.734 66.2705 231.753 147.757 313.482c82.7812 83.0312 191.422 143.515 307.703 162.343c206.38 33.4141 422.238 -73.5957 473.594 -286.399zM557.664 386.35c-18.585 -14.0352 -36.9102 -28.4443 -54.3223 -43.9316
c-6.1875 -5.52246 -12.2109 -11.2168 -18.1484 -17.0107c16.417 -0.572266 34.6797 -3.46191 47.3555 -3.01855c26.2822 0.916016 52.4141 3.32715 78.4883 6.63965c45.0459 5.72266 44.4092 -64.8828 0 -70.584c-47.7139 -6.12305 -96.043 -9.16309 -144.129 -6.19434
c-12.6758 0.779297 -26.0811 2.71777 -37.9629 6.90234c-3.54785 -20.1445 -6.85254 -40.332 -9.67773 -60.584c-2.93262 -21.0674 -9.92871 -49.002 -0.986328 -69.626c15.7451 -36.3047 -36.9619 -68.374 -54.002 -31.5693
c-18.9707 40.9688 -12.2178 81.7656 -6.20898 125.202c6.97461 50.4463 16.0381 100.557 26.6465 150.353c15.1016 70.8916 33.1426 141.168 52.4717 211.065c-18.127 -7.19629 -35.8467 -15.2871 -53.0371 -24.0791c-3.47656 -10.3799 -12.4541 -19 -23.8857 -17.6689
c-12.1035 1.40918 -19.9512 3.30469 -28.3779 12.8193c-12.6328 14.2568 -10.2002 34.3086 5.78125 44.8525c36.9336 24.3721 77.6162 43.4648 120.108 56.9277c1.80273 6.2666 3.59863 12.5479 5.41602 18.8076c10.251 35.3604 58.752 27.3057 64.7256 -2.0166
c21.4395 3.54102 43.0713 5.70898 64.668 6.39551c69.0098 2.18945 201.723 -26.3535 149.945 -123.992c-38.4141 -72.4512 -121.388 -121.761 -184.868 -169.689zM458.54 395.132c29.2578 25.1514 60.5908 47.8057 91.7305 70.5615
c33.9004 24.7656 67.8652 49.5889 98.0459 78.9043c9.26367 8.99219 37.0908 31.0391 37.749 44.4521c1.08008 22.0186 -43.9512 25.2158 -61.1553 26.7109c-37.4775 3.26953 -74.9766 -0.12793 -111.609 -8.19727c-19.458 -70.291 -38.9443 -140.553 -55.8125 -211.537
c-0.171875 -0.744141 -0.335938 -1.48828 -0.514648 -2.23242c0.514648 0.443359 1.05859 0.901367 1.56641 1.33789z" />
    <glyph glyph-name="mu" unicode="&#xb5;" horiz-adv-x="609" 
d="M550.625 512.824c-3.64844 -68.3809 -2.8457 -136.777 0.78125 -205.151c2.38965 -45.1387 -67.0566 -44.6025 -69.9111 0c-3.76953 58.9092 -4.46387 117.868 -2.03906 176.856c0.59375 14.4219 1.39453 28.8223 2.33887 43.2148
c-22.7979 -42.5566 -46.0537 -84.8555 -70.6904 -126.311c-29.8232 -50.168 -83.2598 -145.961 -156.012 -120.888c-67.7441 23.3496 -79.791 128.393 -86.3652 188.031c-3.14746 28.543 -4.37109 57.1787 -4.75781 85.8506
c-4.88574 -22.5264 -9.37109 -45.1387 -13.3701 -67.8438c-14.0996 -80.084 -22.1689 -161.119 -26.0459 -242.326c-3.94141 -82.5664 -2.94727 -165.326 1.52344 -247.85c2.1748 -40.1455 5.44434 -80.2266 9.09961 -120.272
c1.83105 -19.9795 3.94141 -39.9238 6.09473 -59.875c1.95312 -18.0703 0.214844 -42.7646 9.97266 -58.3096c20.459 -32.5986 -28.085 -57.8789 -50.0889 -29.2793c-24.4648 31.8047 -23.9072 86.9727 -29.2295 125.408c-6.5459 47.2852 -11.6533 94.7275 -15.3232 142.327
c-7.38965 95.7646 -8.65625 192.016 -3.3916 287.931c5.17871 94.3047 17.3398 188.639 36.5469 281.12c9.58594 46.1475 19.4795 93.6465 35.375 138.099c11.6602 32.6133 29.6445 59.7256 64.418 69.4326c23.3066 6.50293 45.4043 -11.6523 46.0557 -35.0869
c1.91016 -68.6455 -2.76855 -137.233 -0.865234 -205.864c0.96582 -34.8809 3.41211 -69.7754 10.6367 -103.977c3.46191 -16.3955 10.9443 -71.9717 29.415 -79.1963c32.0264 -12.5254 95.7354 121.16 108.626 144.381c35.46 63.8379 69.5107 128.484 104.112 192.787
c11.3594 21.1172 49.3662 24.1006 59.8105 0c23.4277 -54.0596 6.32324 -116.288 3.2832 -173.209z" />
    <glyph glyph-name="paragraph" unicode="&#xb6;" horiz-adv-x="627" 
d="M571.971 -313.424c21.6963 -37.4707 -33.8193 -68.8506 -57.4766 -33.6191c-22.1904 33.0781 -26.4609 70.5273 -30.1738 109.313c-4.67871 48.916 -8.27734 97.9248 -11.2822 146.97c-5.72266 93.3896 -9.03516 186.922 -9.5498 280.483
c-0.450195 81.7002 0.9375 163.473 4.2207 245.159c-31.7334 -19.9941 -64.2529 -39.709 -97.6455 -57.5928c-3.6123 -49.4307 -6.69531 -98.9043 -8.89844 -148.464c-3.82715 -86.0645 -5.15039 -172.179 -3.94141 -258.321
c0.62207 -44.1943 2.10254 -88.375 4.41309 -132.52c2.00293 -38.25 0.929688 -77.5801 13.7627 -114.07c11.6963 -33.25 -38.1572 -51.6279 -55.1611 -23.2568c-19.9365 33.2637 -22.0967 71.6494 -25.5088 109.448c-3.97754 44.0586 -6.38867 88.2959 -8.24121 132.483
c-3.69824 88.375 -3.4834 176.879 -0.822266 265.282c1.33008 44.0654 3.31836 88.124 5.88672 132.168c-26.9404 -10.959 -54.417 -20.1084 -82.4805 -26.7041c-44.8594 -10.5518 -95.7354 -9.50781 -129.736 25.9521c-32.5059 33.9004 -36.0039 85.8496 -20.2373 128.105
c34.8018 93.2461 134.966 162.063 229.149 183.86c9.98633 2.31055 20.5166 4.17773 31.3896 5.52246c3.39746 29.2148 6.93164 58.416 10.7305 87.5596c6.03711 46.3193 79.1602 47.8076 74.1025 0.000976562c-3.06934 -29.0723 -6.10254 -58.1445 -9.09961 -87.2168
c30.0303 -3.59863 59.3027 -12.0469 84.1758 -26.6904c3.67676 44.6094 7.96875 89.1611 13.0547 133.62c5.27246 46.0684 77.5947 47.292 73.2666 0c-16.625 -181.707 -27.7842 -363.729 -28.3418 -546.251c-0.279297 -91.1865 1.54492 -182.416 5.67285 -273.509
c2.00977 -44.3809 4.6709 -88.7188 7.68945 -133.042c2.7832 -40.8252 -0.0205078 -88.2246 21.082 -124.672zM296.898 420.039c4.04883 54.5742 8.99902 109.084 14.6719 163.501c-1.47363 -0.322266 -2.9043 -0.56543 -4.39258 -0.916016
c-68.1445 -16.1602 -137.019 -60.4688 -172.05 -122.411c-18.335 -32.4199 -21.3965 -79.3115 26.3037 -82.1299c36.9189 -2.18164 79.9766 17.7119 113.055 31.8477c7.54688 3.22656 14.9863 6.65332 22.4121 10.1084zM471.853 519.459
c0.665039 11.582 1.28027 23.1631 2.0459 34.7305c-28.457 15.6953 -56.2129 27.0547 -85.6709 31.876c-4.07031 -41.376 -7.91895 -82.7734 -11.4531 -124.192c32.127 18.4492 63.624 38.0498 95.0781 57.5859z" />
    <glyph glyph-name="questiondown" unicode="&#xbf;" horiz-adv-x="605" 
d="M497.977 86.2588c6.75977 31.833 61.4424 24.6943 57.1436 -7.72559c-13.9854 -105.379 -88.5537 -194.905 -183.431 -240.38c-88.8037 -42.5566 -222.096 -55.1113 -291.9 30.0439c-77.3584 94.3691 13.9639 218.834 70.2979 297.587
c67.2646 94.0264 142.635 182.258 193.961 286.649c20.3301 41.3545 81.6074 5.08594 61.6709 -36.0469c-40.1738 -82.8955 -96.415 -155.403 -151.905 -228.405c-26.583 -34.9736 -52.9941 -70.1406 -77.1592 -106.846
c-23.585 -35.8252 -54.4814 -78.0234 -56.6846 -122.282c-5.3584 -107.718 153.743 -91.751 216.673 -63.6162c80.3418 35.9248 142.878 104.213 161.334 191.021zM413.995 493.847c-11.4102 -8.09766 -28.5273 -6.21582 -38.3779 3.6416
c-11.0596 11.0664 -10.416 25.2949 -7.29004 39.2871c5.67285 25.3525 17.2471 49.8037 29.7588 72.4307c20.3662 36.834 77.5371 3.53418 56.4629 -32.999c-10.3223 -17.8984 -21.8682 -38.5078 -28.1709 -58.8457c-0.300781 -8.89941 -4.59961 -17.999 -12.3828 -23.5146z
" />
    <glyph glyph-name="Agrave" unicode="&#xc0;" horiz-adv-x="674" 
d="M775.25 -304.877c15.1582 -47.4141 -58.2588 -66.8291 -74.0254 -20.4102c-61.2988 180.227 -115.036 363.085 -163.358 547.203c-6.04492 23.0342 -12.0684 46.1113 -18.0273 69.2168c-71.1709 -1.49512 -143.278 -15.0654 -212.481 -25.3164
c-17.2109 -2.54688 -34.4219 -5.20801 -51.626 -7.85449c-4.64941 -16.3604 -9.33496 -32.7207 -13.7412 -49.1455c-51.6484 -192.545 -95.8145 -390.92 -85.041 -591.24c2.25293 -41.9766 -67.4795 -51.7842 -73.7744 -9.98633
c-16.3604 108.669 -1.55957 218.576 18.0557 325.865c19.1641 104.842 43.4004 208.79 72.1504 311.415c-51.498 -8.47656 -102.91 -17.4609 -154.13 -27.2041c-32.3701 -6.15918 -46.2119 43.1719 -13.6846 49.6318c61.8779 12.29 123.52 25.5312 185.326 38
c25.7451 86.2578 54.667 171.657 87.4014 255.482c18.8779 48.3438 39.3301 96.1436 62.8936 142.405c17.7695 34.8945 38.0859 87.874 76.6504 104.506c2.00977 0.858398 3.96973 1.45898 5.9082 1.98145c15.6162 14.2715 43.4434 13.5557 50.3184 -13.3984
c37.4277 -146.783 71.0352 -294.403 108.319 -441.194c7.76172 -0.672852 15.5088 -1.48828 23.2129 -2.59668c35.9111 -5.18652 28.3926 -66.2637 -5.59375 -65.4551c3.92773 -14.9082 7.82617 -29.8232 11.8682 -44.71
c49.8955 -183.768 105.378 -365.832 163.379 -547.195zM311.629 328.125c62.1934 10.709 127.203 23.6934 191.735 27.585c-29.6797 117.969 -57.1494 236.811 -78.5312 356.382c-3.5127 -7.92578 -6.70996 -15.5156 -9.74316 -21.3887
c-11.1807 -21.6611 -21.6748 -43.665 -31.582 -65.9414c-19.4365 -43.7012 -36.5264 -88.4541 -52.7793 -133.429c-20.2734 -56.0977 -38.9297 -112.775 -56.3057 -169.847c12.3896 2.28223 24.7871 4.5 37.2061 6.63867zM317.993 901.067
c-31.5615 -10.9023 -44.8594 38.8857 -13.7275 49.7949c79.54 27.8848 157.656 59.375 236.896 88.0254c33.9082 12.2607 47.1641 -40.4971 14.708 -53.3516c-78.167 -30.9531 -158.423 -57.0137 -237.877 -84.4688z" />
    <glyph glyph-name="AE" unicode="&#xc6;" horiz-adv-x="1337" 
d="M1387.34 -131.317c31.1396 16.0312 57.4199 -28.4785 27.5039 -47.0273c-107.425 -66.6855 -222.947 -115.437 -344.965 -148.65c-101.802 -27.7129 -227.983 -62.7363 -331.967 -28.793c-43.958 14.3428 -84.3398 43.0068 -97.3594 89.5693
c-9.47852 33.8789 -4.2207 68.3447 8.75586 100.006c-40.3389 128.435 -77.2871 257.964 -111.452 388.144c-6.04492 23.0342 -12.0684 46.1113 -18.0273 69.2168c-71.1709 -1.49512 -143.278 -15.0654 -212.481 -25.3164
c-17.2109 -2.54688 -34.4219 -5.20801 -51.626 -7.85449c-4.64941 -16.3604 -9.33496 -32.7207 -13.7412 -49.1455c-51.6484 -192.545 -95.8145 -390.92 -85.041 -591.24c2.26074 -41.9766 -67.4717 -51.7842 -73.7666 -9.98633
c-16.3672 108.669 -1.55957 218.576 18.0557 325.865c19.1641 104.842 43.4004 208.79 72.1504 311.415c-51.498 -8.47656 -102.91 -17.4609 -154.13 -27.2041c-32.3701 -6.15918 -46.2119 43.1719 -13.6846 49.6318c61.8779 12.29 123.52 25.5312 185.326 38
c25.7451 86.2578 54.667 171.657 87.4014 255.482c18.8779 48.3438 39.3301 96.1436 62.8936 142.405c17.7695 34.8945 38.0859 87.874 76.6504 104.506c2.00977 0.858398 3.96973 1.45898 5.9082 1.98145c15.6162 14.2715 43.4434 13.5557 50.3184 -13.3984
c36.8838 -144.659 70.0479 -290.134 106.688 -434.821c49.667 94.1475 141.118 168.845 226.867 226.488c101.902 68.5098 223.534 127.748 346.589 142.563c51.291 6.17383 112.489 6.33789 154.194 -28.9717c45.2314 -38.293 39.0361 -96.4443 24.5498 -147.936
c-12.54 -44.5732 -81.3574 -25.6445 -69.3613 19.1221c7.3252 27.3408 19.0996 62.9365 -12.0537 79.1533c-22.3906 11.6533 -54.6172 8.86328 -78.46 6.77441c-62.3145 -5.45801 -123.899 -28.2637 -180.455 -53.873
c-107.475 -48.6582 -211.015 -115.665 -290.262 -203.875c-33.4639 -37.248 -87.0156 -99.8271 -75.7559 -155.031c12.1035 -59.3242 98.9189 -65.9199 146.254 -67.0791c129.586 -3.16895 252.104 47.6572 378.951 65.6484
c38.1641 5.41504 68.9023 -46.5908 28.4922 -67.5791c-97.209 -50.4893 -194.583 -105.521 -281.728 -172.186c-42.2129 -32.291 -81.7217 -68.252 -117.139 -107.904c-14.5078 -16.2461 -34.7168 -37.9141 -50.3477 -61.6562
c13.4775 -43.3574 27.1484 -86.665 40.9619 -129.93c35.4814 -7.75488 77.5303 -4.47168 104.32 -1.60352c56.9492 6.10156 113.913 18.5127 169.317 32.7695c118.284 30.4385 233.134 76.4502 341.653 132.319zM311.635 328.126
c62.1855 10.709 127.203 23.6934 191.735 27.585c-29.6797 117.969 -57.1494 236.811 -78.5312 356.382c-3.5127 -7.92578 -6.70996 -15.5156 -9.74316 -21.3887c-11.1807 -21.6611 -21.6748 -43.665 -31.582 -65.9414
c-19.4365 -43.7012 -36.5264 -88.4541 -52.7793 -133.429c-20.2734 -56.0977 -38.9297 -112.775 -56.3057 -169.847c12.3896 2.28223 24.7871 4.5 37.2061 6.63867zM643.938 127.22c19.5645 -68.7529 39.8154 -137.306 60.6104 -205.687
c63.6738 80.6709 145.36 143.701 232.434 199.184c-71.4707 -14.2139 -143.442 -22.5479 -215.929 -13.0117c-26.0176 3.41895 -52.6504 9.27051 -77.1152 19.5146z" />
    <glyph glyph-name="Ccedilla" unicode="&#xc7;" horiz-adv-x="687" 
d="M642.065 161.771c4.32812 32.5625 55.9336 33.333 51.9844 -0.0244141c-21.9043 -184.297 -87.2451 -375.848 -243.457 -489.954c-35.5527 -25.9678 -77.1787 -45.3184 -120.564 -53.8887c-0.279297 -81.5645 0.0429688 -163.15 -0.557617 -244.708
c-0.279297 -37.6494 -57.5078 -37.4922 -58.3447 0c-1.7959 80.0479 -0.780273 160.082 1.54492 240.087c-17.9482 0.694336 -35.8818 3.37695 -53.5156 8.58496c-77.6729 22.9414 -133.37 89.8408 -166.005 161.169c-74.3184 162.442 -58.6309 361.096 -10.166 528.617
c45.375 156.849 127.562 341.296 267.25 436.353c65.2119 44.373 148.744 35.9248 182.444 -40.8252c37.0264 -84.3184 46.583 -186.128 43.7002 -277.199c-1.42383 -45.0312 -71.0352 -45.1602 -70.084 0c0.987305 46.5557 -1.40234 93.0176 -9.46484 138.937
c-6.52441 37.1631 -13.5635 82.373 -32.3984 115.551c-40.4893 71.3203 -147.392 -64.0752 -171.177 -97.0391c-83.21 -115.329 -137.984 -254.974 -163.587 -394.382c-25.0879 -136.562 -25.918 -298.818 50.21 -420.293
c31.5547 -50.3467 78.0098 -85.3779 135.103 -89.6484c2.26074 60.7979 5.04395 121.589 7.71973 182.358c1.45898 33.1348 52.9004 33.2637 51.6416 0c-2.23926 -59.0527 -3.3125 -118.127 -3.86328 -177.201c58.4082 14.5928 107.432 54.5742 147.17 98.8398
c90.8359 101.194 146.591 240.603 164.417 374.667z" />
    <glyph glyph-name="Egrave" unicode="&#xc8;" horiz-adv-x="784" 
d="M833.365 -131.317c31.1396 16.0312 57.4219 -28.4805 27.5059 -47.0439c-107.425 -66.6855 -222.947 -115.437 -344.965 -148.65c-101.802 -27.7129 -227.983 -62.7363 -331.967 -28.793c-43.958 14.3428 -84.3398 43.0068 -97.3594 89.5693
c-13.5127 48.3154 2.86133 97.8252 28.9785 138.687c67.1221 105.007 163.466 182.008 267.464 248.278c-71.4707 -14.2139 -143.442 -22.5479 -215.93 -13.0117c-50.9688 6.70996 -104.32 22.5977 -139.044 62.9512c-37.3418 43.3936 -37.9072 103.075 -18.0352 154.395
c43.207 111.553 147.105 197.996 243.636 262.893c101.902 68.5098 223.534 127.748 346.59 142.563c51.291 6.17383 112.489 6.33789 154.194 -28.9717c45.2314 -38.293 39.0361 -96.4443 24.5498 -147.936c-12.54 -44.5732 -81.3574 -25.6445 -69.3613 19.1221
c7.3252 27.3408 19.0996 62.9365 -12.0537 79.1533c-22.3906 11.6533 -54.6172 8.86328 -78.46 6.77441c-62.3145 -5.45801 -123.899 -28.2637 -180.455 -53.873c-107.475 -48.6582 -211.015 -115.665 -290.262 -203.875
c-33.4639 -37.248 -87.0156 -99.8271 -75.7559 -155.031c12.1035 -59.3242 98.9189 -65.9199 146.254 -67.0791c129.586 -3.16895 252.104 47.6572 378.951 65.6484c38.1641 5.41504 68.9023 -46.5908 28.4922 -67.5791
c-97.209 -50.4893 -194.583 -105.521 -281.728 -172.186c-42.2129 -32.291 -81.7217 -68.252 -117.139 -107.904c-30.6172 -34.2793 -86.6436 -92.6738 -71.4062 -143.872c18.2129 -61.2061 117.562 -54.5391 166.334 -49.3174
c56.9492 6.10156 113.913 18.5127 169.317 32.7695c118.284 30.4385 233.134 76.4502 341.653 132.319zM343.978 766.779c-35.2744 -14.0352 -49.9746 42.5352 -15.5947 56.5918c91.4795 37.3848 184.089 73.1885 278.759 101.724
c36.7832 11.0811 51.0977 -44.4736 15.6875 -56.9141c-93.3818 -32.8135 -186.85 -64.7969 -278.852 -101.401z" />
    <glyph glyph-name="Igrave" unicode="&#xcc;" horiz-adv-x="412" 
d="M461.731 814.116c40.7969 -9.70703 22.6787 -67.9873 -16.9951 -61.5781c-53.2148 8.57715 -108.068 6.10938 -162.886 -2.40332c-5.6582 -142.334 -9.60742 -284.732 -8.87793 -427.202c0.701172 -135.831 8.77734 -271.312 13.3838 -406.929
c32.2979 6.03711 64.7676 11.1377 97.3447 15.1934c42.7354 5.32227 42.0771 -61.5352 0 -66.9004c-32.1406 -4.09863 -63.8955 -9.51367 -95.4287 -15.8447c0.207031 -8.87793 0.478516 -17.748 0.635742 -26.626c0.59375 -34.0225 -55.6406 -42.8574 -60.4336 -8.18457
c-0.958984 6.95312 -1.83887 13.9209 -2.7334 20.8887c-44.1729 -10.7871 -87.96 -23.3057 -131.554 -37.2412c-39.8457 -12.7334 -54.9902 47.5996 -17.0264 61.7568c46.0547 17.1758 93.1895 31.0898 140.946 42.4854c-13.6992 137.391 -16.4463 276.906 -17.9346 414.318
c-1.5166 140.066 1.1084 280.219 9.87891 420.027c-63.8809 -15.0938 -126.725 -35.5391 -185.834 -53.3867c-39.1943 -11.8252 -54.0098 46.8691 -16.668 60.4678c67.0645 24.4297 136.954 42.4277 206.959 56.7988c0.629883 8.17676 1.17383 16.3535 1.84668 24.5303
c3.57715 43.458 70.498 44.4951 68.5742 0c-0.164062 -3.76953 -0.306641 -7.53906 -0.470703 -11.3018c58.8311 9.82227 118.928 15.0156 177.272 1.13086zM125.396 905.224c-29.2578 -17.0039 -51.8418 25.1592 -25.8955 44.2949
c26.4756 19.5361 66.3418 23.5635 97.6885 31.2461c41.3047 10.1221 82.6592 20.001 124.057 29.7441c38.2217 8.99219 54.3311 -50.2676 16.1816 -58.6875c-36.9482 -8.15527 -73.918 -16.1885 -110.931 -24.0498c-30.4023 -6.45215 -74.1533 -6.88184 -101.101 -22.5479z
" />
    <glyph glyph-name="Ntilde" unicode="&#xd1;" horiz-adv-x="605" 
d="M644.999 -323.619c12.5684 -49.123 -62.6396 -69.7451 -75.8232 -20.915c-50.6328 187.466 -64.4824 382.199 -72.5586 575.474c-3.60547 86.3428 -6.11621 172.743 -10.3516 259.064c-2.10352 42.792 -1.09473 88.21 -11.0166 130.087
c-4.24219 17.9336 -6.45215 31.1533 -23.0059 16.002c-15.1016 -13.8135 -26.4971 -36.9912 -36.9346 -54.6963c-84.8623 -143.986 -128.056 -317.338 -170.991 -477.556c-11.5674 -43.1426 -21.8467 -86.6719 -33.8574 -129.693
c-9.05664 -32.4268 -18.8643 -71.6855 -38.9375 -99.4131c-18.2129 -25.1523 -52.0703 -33.7656 -76.3496 -11.0742c-23.127 21.625 -25.9736 65.5049 -30.2227 94.5693c-25.2158 172.422 -41.6973 348.506 -54.8672 522.229
c-2.61133 34.5088 55.125 42.2275 60.4326 8.18359c15.1582 -97.3027 26.6543 -195.084 38.6367 -292.815c5.95898 -48.6016 11.9111 -97.1953 17.8701 -145.789c2.84668 -23.2275 5.34375 -46.5479 8.75586 -69.7041c3.77734 12.6689 7.24707 25.4307 10.6025 38.207
c9.75 37.1055 19.2646 74.2686 29.3369 111.288c20.2734 74.5117 41.9775 148.651 66.4932 221.882c38.2861 114.363 79.5908 254.995 166.714 343.091c38.708 39.1367 93.8115 34.0078 120.266 -15.3154c27.5127 -51.3057 25.1592 -119.429 28.7217 -175.863
c17.4902 -277.171 17.7832 -556.467 87.0869 -827.242zM107.736 828.453c-25.6172 -25.8311 -63.959 13.1064 -39.7227 39.7246c45.0527 49.4385 115.071 134.387 188.023 82.1445c24.6221 -17.6338 35.5166 -50.0684 60.0322 -66.6504
c34.4443 -23.2988 90.3564 27.4912 116.009 47.4785c29.2939 22.8193 71.1279 -15.96 41.9697 -41.9707c-49.8242 -44.4521 -134.071 -103.733 -197.438 -50.2246c-20.9316 17.6689 -34.5166 55.2031 -59.6758 66.5342
c-34.8447 15.6875 -88.0742 -55.7402 -109.198 -77.0361z" />
    <glyph glyph-name="Ograve" unicode="&#xd2;" horiz-adv-x="761" 
d="M733.003 517.072c51.999 -198.847 -23.2559 -422.436 -139.129 -584.942c-53.8447 -75.5127 -120.702 -147.893 -212.11 -175.727c-92.252 -28.085 -187.358 0.415039 -246.425 76.7217c-61.3984 79.3115 -70.0039 182.974 -65.3828 279.883
c5.25098 110.143 28.1641 218.912 68.1592 321.637c17.2109 44.2158 89.0186 25.252 71.9434 -19.8301c-35.1094 -92.7168 -58.251 -189.383 -64.3818 -288.488c-5.42285 -87.7021 -5.00098 -191.636 59.0879 -259.945c133.485 -142.27 301.822 55.4824 367.263 166.019
c81.7217 138.042 136.689 317.159 92.5166 476.525c-17.5186 63.1943 -53.6797 126.703 -111.358 161.068c-69.9111 41.6553 -161.219 30.6035 -234.757 4.62891c-72.6582 -25.667 -137.405 -74.4326 -181.793 -137.448
c-22.4053 -31.8047 -40.3037 -66.6641 -52.3789 -103.655c-10.5303 -32.2695 -25.4814 -74.8262 -6.36035 -106.173c21.1387 -34.6729 -31.9482 -64.8535 -54.0029 -31.5684c-53.0791 80.1406 11.5098 210.765 60.2178 278.651
c59.8105 83.3535 146.204 144.452 245.23 171.965c90.3281 25.1016 194.799 25.3018 273.853 -30.7529c66.2061 -46.9561 109.492 -120.888 129.809 -198.568zM370.361 832.617c-32.0117 -6.43066 -45.6973 42.2773 -13.5488 49.1523
c85.4492 18.2705 170.583 38.0361 256.304 55.04c34.3008 6.80273 49.0225 -45.2393 14.5283 -52.708c-85.4844 -18.5059 -171.534 -34.2441 -257.283 -51.4844z" />
    <glyph glyph-name="Oslash" unicode="&#xd8;" horiz-adv-x="758" 
d="M730.008 517.072c51.9922 -198.847 -23.2529 -422.435 -139.111 -584.948c-53.8447 -75.5127 -120.702 -147.893 -212.11 -175.727c-34.0508 -10.3652 -68.4736 -12.9688 -101.337 -8.3623c-28.2354 -103.419 -54.0234 -207.518 -77.165 -312.231
c-8.95605 -40.5029 -71.0059 -23.2559 -62.085 17.1191c23.2275 105.093 49.3809 209.448 78.2812 312.996c-32.0264 14.6934 -60.8906 37.1914 -84.125 67.208c-61.3984 79.3115 -70.0039 182.974 -65.3828 279.883c5.25781 110.143 28.1562 218.912 68.1592 321.637
c17.2109 44.2158 89.0107 25.252 71.9424 -19.8301c-35.1094 -92.7168 -58.251 -189.383 -64.3818 -288.488c-5.42969 -87.7021 -5.00781 -191.636 59.0811 -259.945c11.4453 -12.1973 23.1553 -21.8477 35.0303 -29.3164c83.3887 285.111 187.923 563.771 311.593 833.909
c-69.6826 40.4248 -160.046 29.415 -232.962 3.65527c-72.6582 -25.667 -137.405 -74.4326 -181.793 -137.448c-22.4053 -31.8047 -40.3037 -66.6641 -52.3789 -103.655c-10.5303 -32.2695 -25.4814 -74.8262 -6.36035 -106.173
c21.1387 -34.6729 -31.9482 -64.8535 -54.0029 -31.5684c-53.0791 80.1406 11.5098 210.765 60.2178 278.651c59.8105 83.3535 146.204 144.452 245.23 171.965c81.4141 22.6191 174.253 24.8652 249.673 -15.9238c39.5664 84.1182 80.9492 167.407 124.171 249.766
c15.1436 28.8428 58.3652 3.33301 43.5791 -25.4746c-43.1426 -84.0615 -84.1465 -169.153 -123.262 -255.074c54.7959 -46.8486 91.3506 -113.205 109.499 -182.623zM569.027 32.4014c81.7295 138.042 136.689 317.166 92.5166 476.519
c-12.7979 46.1543 -35.5752 92.4092 -69.3682 127.419c-117.396 -265.825 -215.9 -539.77 -295.52 -819.251c109.864 -7.46875 221.817 129.922 272.371 215.313z" />
    <glyph glyph-name="Ugrave" unicode="&#xd9;" horiz-adv-x="729" 
d="M695.229 521.351c17.8623 -82.2871 14.3857 -171.232 12.1826 -254.836c-2.2959 -87.0586 -6.20215 -174.003 -3.18359 -261.104c1.64551 -47.4707 -71.8066 -47.1992 -73.6025 0c-3.83398 100.851 4.16406 201.544 7.24707 302.302
c1.53809 50.2393 1.70996 100.442 -1.33008 150.639c-0.822266 13.6133 -2.20996 27.2842 -2.73926 40.9121c-1.03027 26.3604 1.49512 12.1465 -3.63379 8.2832c-13.957 -10.501 -25.3525 -44.5303 -32.7354 -60.1465
c-71.6143 -151.419 -121.796 -311.98 -191.622 -464.222c-38.8936 -84.7979 -155.854 -342.897 -286.141 -238.807c-60.9629 48.708 -74.3975 141.274 -85.7002 213.396c-13.0342 83.1455 -17.4912 167.028 -15.5244 251.125
c2.00293 85.7568 10.501 171.077 21.4746 256.104c5.89453 45.7109 12.7334 91.3145 20.2021 136.797c4.0127 24.4219 0.264648 55.0674 16.0811 74.6611c11.5957 14.3711 33.6504 10.5156 45.7686 0c0.750977 -0.651367 1.50879 -1.30957 2.25977 -1.96094
c10.6729 -9.25684 11.0596 -22.6836 6.45312 -34.2871c2.28906 -35.5244 -5.6582 -72.415 -9.62109 -107.954c-5.25098 -47.085 -10.4873 -94.1836 -14.6074 -141.383c-8.20508 -93.9336 -12.9189 -188.403 -8.25488 -282.658c4.00586 -81 13.0195 -164.21 36.626 -242.104
c9.85059 -32.5059 29.3369 -85.0703 70.7061 -61.6787c29.8516 16.8828 53.165 47.5713 71.7217 75.6133c90.1348 136.211 141.504 297.173 202.988 447.312c28.8789 70.5264 56.0908 146.525 98.8115 210.049c16.5244 24.5654 33.8857 49.832 67.0996 44.1807
c30.3887 -5.16504 43.2148 -33.2354 49.0732 -60.2324zM269.437 764.98c-30.0381 -3.57715 -34.7158 44.3301 -6.97461 51.541c83.1025 21.5967 168.823 35.1602 253.113 51.334c37.6562 7.22461 53.5156 -50.5977 15.8662 -57.5576
c-86.9365 -16.0664 -174.174 -34.8516 -262.005 -45.3174z" />
    <glyph glyph-name="germandbls" unicode="&#xdf;" horiz-adv-x="843" 
d="M756.154 362.706c88.1172 -122.054 89.1914 -285.274 35.0605 -421.271c-53.9521 -135.517 -161.642 -281.706 -307.431 -325.715c-68.1299 -20.5732 -139.822 -5.60059 -185.741 50.7051c-47.1494 57.8076 -53.3154 132.44 -40.3105 203.625
c27.3623 149.73 119.564 290.04 236.053 385.669c35.5742 29.2012 86.8789 -21.0527 51.0967 -51.0977c-104.32 -87.5947 -185.22 -207.209 -214.135 -341.609c-11.8389 -55.0605 -10.9375 -123.749 35.8535 -163.337c48.8662 -41.3477 116.01 -11.9248 162.701 17.7979
c102.789 65.4336 179.182 183.854 211.309 299.97c31.0605 112.282 16.6895 243.464 -66.0557 331.059c-85.6211 90.6357 -234.701 123.363 -347.849 68.6816c-42.2705 -17.9844 -80.0986 41.7979 -37.0205 63.3301c8.79883 4.40625 17.791 8.31934 26.8975 11.8887
c45.1035 22.0186 84.748 54.8887 115.802 94.2617c17.5049 22.1973 32.5918 47.3281 43.6582 73.3594c7.52539 17.6904 26.9619 57.4072 12.2324 74.5332c-17.1973 19.9941 -57.1426 1.64551 -74.6689 -7.86914c-26.2676 -14.2568 -48.6865 -34.1719 -68.166 -56.6914
c-39.0371 -45.1318 -65.334 -100.979 -85.5352 -156.62c-47.5635 -131.003 -67.9512 -272.879 -83.7031 -410.756c-14.1357 -123.771 -30.0664 -254.802 -20.5166 -380.268c1.49512 -5.42285 2.91895 -10.8662 4.5 -16.2744
c2.48926 -8.50586 1.85254 -15.9453 -0.81543 -22.083c0.0146484 -0.128906 0.0292969 -0.264648 0.0439453 -0.400391c3.89844 -31.9619 -50.168 -39.0654 -56.2627 -8.41211c-3.24805 3.41895 -5.95215 7.71777 -7.79102 13.0254
c-54.7314 157.593 -61.8418 328.184 -67.6006 493.48c-6.11621 175.434 -5.27246 351.218 6.27344 526.4c3.11914 47.3633 76.1924 48.0283 74.2754 -0.000976562c-6.82422 -170.655 -10.1582 -341.417 -5.22949 -512.172c1.15137 -39.96 2.375 -80.0127 4.2207 -120.037
c2.6543 22.7197 5.42969 45.2959 8.22656 67.6152c16.6035 132.477 36.29 267.9 82.7451 393.681c38.1143 103.189 98.5332 213.54 205.479 257.885c41.5977 17.2471 97.0801 21.2959 131.023 -13.9922c35.8252 -37.2412 23.0137 -94.2402 6.93262 -137.348
c-17.7266 -47.5068 -44.2666 -90.8506 -77.6309 -127.949c113.369 -5.44336 225.501 -60.8408 292.079 -153.064z" />
    <glyph glyph-name="agrave" unicode="&#xe0;" horiz-adv-x="363" 
d="M339.463 240.352c5.72266 -75.3057 3.95312 -156.747 -13.7451 -230.442c-9.42871 -39.2725 -74.7764 -31.2314 -71.1348 9.62988c1.70215 19.1211 4.15625 38.9219 6.70312 59.0801c-26.5186 -29.2656 -57.5791 -54.0098 -92.2949 -68.3164
c-68.917 -28.3994 -153.979 -1.56641 -153.994 84.1191c-0.0146484 74.7764 65.1045 139.724 129.916 166.893c37.8496 15.8594 85.6777 21.1455 123.549 6.74512c-1.98828 12.833 -4.70703 25.4658 -8.49805 37.7773c-13.585 44.1514 -48.7949 71.8857 -96.1084 63.0801
c-39.3018 -7.31836 -85.127 -42.042 -85.291 -84.7705c-0.114258 -30.2812 -41.7402 -33.8721 -50.8828 -6.88867c-19.6074 57.8867 31.5908 114.479 79.9492 139.079c50.876 25.8887 113.634 25.624 160.561 -8.79883c53.0654 -38.9229 66.5713 -105.322 71.2715 -167.187z
M191.797 104.508c29.2793 27.0762 52.8359 58.9219 72.415 93.4668c-32.5488 23.2207 -72.6943 16.7686 -109.649 -4.56348c-30.6318 -17.6836 -75.2197 -59.4746 -72.5439 -99.0049c4.32812 -64.0166 86.9512 -11.0088 109.778 10.1016zM118.409 542.481
c-30.3887 -2.20312 -32.8076 41.7393 -6.83301 50.4238c49.6309 16.5752 100.257 29.1367 152.406 34.6094c32.9277 3.45508 39.8027 -51.5195 7.77637 -57.4717c-47.0205 -8.73438 -94.291 -16.0234 -141.168 -25.5947
c-2.27441 -0.793945 -4.69922 -1.42383 -7.43164 -1.62402c-1.58105 -0.114258 -3.16895 -0.228516 -4.75 -0.342773z" />
    <glyph glyph-name="ae" unicode="&#xe6;" horiz-adv-x="604" 
d="M551.529 174.854c12.1035 26.6035 58.0068 7.02734 47.2051 -19.877c-33.8145 -84.1543 -124.729 -189.483 -226.709 -141.526c-16.0957 7.56836 -29.165 17.583 -39.6162 29.3789c-1.93848 -11.1025 -4.0918 -22.1123 -6.68848 -32.9209
c-9.42871 -39.2725 -74.7764 -31.2314 -71.1348 9.62988c1.70215 19.1211 4.15625 38.9219 6.70312 59.0801c-26.5186 -29.2656 -57.5791 -54.0098 -92.2949 -68.3164c-68.9102 -28.3994 -153.98 -1.56641 -153.995 84.1191
c-0.0146484 74.7764 65.1045 139.724 129.916 166.893c37.8496 15.8594 85.6777 21.1455 123.549 6.74512c-1.98828 12.833 -4.71387 25.4658 -8.49805 37.7773c-13.585 44.1514 -48.7949 71.8857 -96.1084 63.0801c-39.3018 -7.31836 -85.127 -42.042 -85.291 -84.7705
c-0.114258 -30.2812 -41.7402 -33.8721 -50.8828 -6.88867c-19.6074 57.8867 31.5908 114.479 79.9492 139.079c50.876 25.8887 113.634 25.624 160.561 -8.79883c38.5146 -28.2568 56.1406 -70.9854 64.7324 -115.945c21.8828 41.0684 57.1641 84.04 103.927 95.8867
c44.3018 11.2236 90.1562 -16.375 104.013 -59.375c32.2549 -100.078 -85.1064 -181.771 -175.513 -161.62c-3.42676 -45.7822 6.72363 -98.9619 58.9873 -99.9561c58.0371 -1.10156 105.822 61.3848 127.189 108.326zM466.479 319.345
c-35.5312 17.3398 -69.6123 -46.4922 -85.8506 -87.5674c21.9258 -0.600586 42.8926 1.5459 62.665 13.585c16.4893 10.0439 57.415 57.2715 23.1855 73.9824zM191.781 104.509c29.2793 27.0762 52.8359 58.9229 72.415 93.4678
c-32.5488 23.2129 -72.6943 16.7676 -109.649 -4.56445c-30.6318 -17.6836 -75.2197 -59.4746 -72.5439 -99.0049c4.32812 -64.0166 86.9512 -11.0088 109.778 10.1016z" />
    <glyph glyph-name="ccedilla" unicode="&#xe7;" horiz-adv-x="328" 
d="M272.106 113.134c14.3643 23.5566 57.4209 7.61035 46.1182 -19.4297c-24.9512 -59.7324 -72.8584 -113.734 -135.781 -128.649c-1.22363 -39.8164 -2.11035 -79.6543 -3.41992 -119.55c-1.1875 -36.1035 -55.7686 -36.2178 -56.1689 0.000976562
c-0.429688 38.9727 0.929688 78.0098 3.21875 117.011c-89.1621 12.7832 -119.551 107.925 -113.284 187.344c6.91699 87.6162 41.2393 187 111.309 244.321c31.2324 25.5449 72.0938 42.9209 111.66 26.2246c38.0713 -16.0596 54.8252 -54.9248 61.0771 -93.375
c6.88184 -42.3057 -49.6885 -58.7158 -64.5039 -17.7832c-10.4658 28.9219 -16.0459 55.8906 -50.6904 37.4062c-20.1797 -10.7734 -35.4385 -31.6689 -47.5205 -50.5186c-29 -45.2314 -46.5693 -98.9619 -49.9746 -152.563
c-2.66797 -42.0488 3.66992 -99.585 46.7988 -112.361c2.34668 28.7783 4.95801 57.5215 7.59082 86.1855c3.04004 33.042 54.8604 33.3711 51.9775 0c-2.35352 -27.2188 -4.0127 -54.4307 -5.3291 -81.6426c36.1113 14.0781 68.2881 46.8203 86.9229 77.3799z" />
    <glyph glyph-name="egrave" unicode="&#xe8;" horiz-adv-x="319" 
d="M266.303 174.854c12.1113 26.6045 58.0098 7.02637 47.2012 -19.8926c-33.8223 -84.1543 -124.736 -189.483 -226.717 -141.526c-101.767 47.8574 -83.1104 192.924 -40.9971 274.603c21.7178 42.1133 57.7217 87.252 105.836 99.4414
c44.3018 11.2236 90.1484 -16.375 104.012 -59.375c32.2549 -100.078 -85.1133 -181.771 -175.513 -161.62c-3.43359 -45.7822 6.72461 -98.9619 58.9883 -99.9561c58.0293 -1.10156 105.822 61.3848 127.189 108.326zM181.255 319.343
c-35.5312 17.3398 -69.6113 -46.4922 -85.8574 -87.5674c21.9258 -0.600586 42.8926 1.5459 62.665 13.585c16.4961 10.0439 57.4219 57.2715 23.1924 73.9824zM109.261 461.032c-28.7432 -17.6045 -54.0459 26.6895 -26.2334 44.8809
c37.8994 24.7725 81.7646 32.1982 123.971 46.5986c35.1172 11.9746 47.8652 -41.2188 15.0234 -54.4883c-36.5547 -14.7646 -78.7676 -16.167 -112.761 -36.9912z" />
    <glyph glyph-name="igrave" unicode="&#xec;" horiz-adv-x="128" 
d="M97.9043 368.071c-6.93164 -133.335 -0.707031 -264.338 13.0205 -396.979c3.69824 -35.7393 -55.3975 -42.9854 -62.2432 -8.42676c-26.2539 132.584 -31.9766 270.848 -21.1963 405.405c3.58398 44.71 72.7871 45.5752 70.4189 0zM139.074 567.204
c37.957 5.81543 55.3477 -49.2529 16.2676 -59.0029c-44.7598 -11.1807 -88.0957 -27.6836 -132.677 -38.7354c-30.124 -7.46875 -42.793 30.6592 -19.9658 47.3408c37.9355 27.7275 90.4424 43.3584 136.375 50.3975z" />
    <glyph glyph-name="ntilde" unicode="&#xf1;" horiz-adv-x="344" 
d="M330.405 17.4834c4.3418 -48.1357 -69.6035 -47.04 -74.5967 -0.00585938c-5.39355 50.6475 -10.0293 101.373 -14.457 152.12c-2.18945 25.0947 -4.14941 50.2178 -6.44531 75.3057c-0.987305 10.7441 -1.73145 21.6387 -3.32715 32.3262
c-16.625 -21.876 -33.4434 -63.5957 -38.3145 -74.2979c-14.7578 -32.4131 -25.7812 -66.4062 -36.3115 -100.371c-10.1934 -32.8779 -17.5762 -67.1221 -29.0078 -99.5566c-7.63281 -21.6611 -23.3135 -40.9902 -48.5586 -39.8389
c-64.8398 2.94727 -58.5156 114.393 -57.9717 157.164c0.980469 76.6211 2.33203 155.954 15.2656 231.61c5.84473 34.2295 54.3242 22.3906 56.6416 -7.66895c4.27734 -55.5684 0.400391 -112.225 0.207031 -167.937
c-0.0576172 -16.3604 -0.143555 -32.7422 -0.0292969 -49.1162c9.95801 29.3867 20.6602 58.502 32.7568 87.0801c18.9639 44.7881 47.4639 120.208 96.7588 139.58c66.8926 26.2969 78.3887 -65.2109 83.5254 -108.969c8.88477 -75.6914 17.0107 -151.526 23.8643 -227.426
zM115.221 469.438c-15.1367 -23.707 -56.0254 -8.69043 -46.7188 19.7021c10.4365 31.8975 23.8418 71.5635 66.8633 58.1221c19.8867 -6.2168 32.792 -24.2148 53.1797 -30.2598c22.6914 -6.73145 40.6758 0.643555 59.3184 13.3984
c29.4941 20.1797 61.4922 -24.3936 37.2842 -48.3154c-25.0801 -24.7803 -59.5176 -34.4443 -94.2051 -29.7227c-18.4707 2.51074 -36.0186 8.74121 -52 18.3984c-3.57715 2.15332 -9.64355 8.69141 -14.8369 12.1748c0.572266 -2.99023 -5.65137 -8.43359 -8.88477 -13.498
z" />
    <glyph glyph-name="ograve" unicode="&#xf2;" horiz-adv-x="379" 
d="M356.468 303.604c26.7188 -5.24316 27.6777 -50.5352 0.000976562 -54.9629c-26.5615 -4.25684 -53.7383 -5.34375 -81 -5.05762c30.3096 -34.8809 52.5996 -75.8633 48.6865 -119.014c-7.21094 -79.4326 -96.0723 -114.084 -164.066 -123.698
c-75.5342 -10.6875 -168.229 14.3926 -150.997 108.834c13.9277 76.3066 77.7949 141.118 134.101 189.397c3.12598 2.67578 6.38086 4.67188 9.67871 6.0957c5.3584 7.92578 14.3643 13.1768 27.2979 12.2969c58.251 -3.94141 118.941 -2.63184 176.299 -13.8916z
M150.86 69.1357c35.1094 4.97852 114.471 23.7344 103.876 74.3096c-7.58301 36.2109 -43.3789 71.0625 -74.6758 95.8711c-32.0762 -27.1973 -61.0049 -58.5723 -82.2725 -94.9551c-8.34863 -14.2852 -30.5176 -47.7852 -20.8457 -65.0107
c10.6807 -19.0352 56.4707 -12.6904 73.918 -10.2148zM124.192 424.688c-30.3457 -13.4482 -57.2715 29.9092 -26.5752 45.4609c51.6699 26.1748 106.059 46.4121 163.223 56.542c35.2168 6.24512 50.7402 -46.4268 14.9795 -54.3174
c-52.0703 -11.4961 -102.782 -26.0322 -151.627 -47.6855z" />
    <glyph glyph-name="divide" unicode="&#xf7;" horiz-adv-x="596" 
d="M513.042 246.998c43.708 -1.77441 43.8301 -69.6973 0 -68.0664c-145.561 5.40137 -287.723 -6.19434 -431.888 -25.0371c-36.0186 -4.71387 -43.3438 55.9053 -8.5127 62.9014c143.93 28.8936 294.011 36.1543 440.4 30.2021zM294.98 292.724
c-46.9697 26.5186 14.542 80.1035 38.3779 98.6602c14.7002 11.4453 34.1865 12.8545 46.541 -3.15527c12.2539 -15.874 6.2666 -34.9385 -8.74902 -45.8262c-7.92578 -5.75098 -14.0059 -10.4863 -21.8887 -17.3896c-4.26367 -3.73438 -8.39844 -7.61133 -12.626 -11.3809
c-1.60938 -1.4375 -3.21191 -3.11133 -4.93555 -4.46289c-3.66309 -14.6787 -19.2861 -26.2891 -36.7197 -16.4453zM315.273 154.465c33.7217 21.0957 63.7598 -31.4336 30.9756 -52.9873c-27.7705 -18.249 -54.4316 -37.6924 -80.9424 -57.7012
c-27.2617 -20.5732 -61.1406 24.7949 -36.168 46.8711c26.6826 23.5928 55.9473 44.9316 86.1348 63.8174z" />
    <glyph glyph-name="oslash" unicode="&#xf8;" horiz-adv-x="377" 
d="M354.468 303.604c26.7188 -5.24316 27.6758 -50.5332 -0.000976562 -54.9609c-26.5615 -4.25586 -53.7383 -5.34277 -81 -5.05664c30.3096 -34.8809 52.5996 -75.8633 48.6865 -119.014c-7.21094 -79.4326 -96.0723 -114.084 -164.066 -123.698
c-2.31055 -0.329102 -4.62793 -0.62207 -6.9668 -0.879883c-16.4961 -61.3203 -30.6318 -123.299 -42.249 -185.835c-7.76855 -41.8486 -71.8574 -24.1006 -63.8594 17.6045c11.0303 57.5645 24.3213 114.557 39.7012 170.912
c-50.0967 10.5869 -89.3623 42.7139 -77.623 107.031c13.9277 76.3066 77.7949 141.118 134.101 189.397c3.12598 2.67578 6.38086 4.67188 9.67871 6.0957c5.3584 7.92578 14.3643 13.1768 27.2979 12.2969c5.7373 -0.393555 11.5176 -0.701172 17.3047 -1.00195
c21.3818 48.9375 44.4453 97.1953 69.2393 144.674c17.0469 32.627 65.126 3.88379 49.0811 -28.6865c-19.2715 -39.123 -37.3838 -78.7754 -54.4375 -118.85c32.0693 -1.55273 64.0811 -3.93457 95.1133 -10.0293zM103.155 66.5625
c15.6377 51.3555 33.0996 102.123 52.3145 152.248c-22.9697 -22.2051 -43.5508 -46.8633 -59.6816 -74.4541c-8.34863 -14.2852 -30.5176 -47.7852 -20.8457 -65.0107c4.59277 -8.18359 15.6875 -11.6602 28.2129 -12.7832zM172.151 73.458
c38.2002 8.72754 89.2119 28.8076 80.5918 69.9902c-4.50684 21.5322 -19.0068 42.5918 -36.5898 61.3486c-15.96 -43.3359 -30.5889 -87.1514 -44.002 -131.339z" />
    <glyph glyph-name="ugrave" unicode="&#xf9;" horiz-adv-x="378" 
d="M366.54 55.4326c4.65723 -46.2764 -67.2852 -45.6074 -72.1211 -0.00390625c-3.16895 30.1162 -6.1377 60.2471 -8.81348 90.4209c-0.901367 10.1504 0.908203 44.1436 -2.86133 65.125c-20.6094 -14.4648 -43.4434 -50.5898 -52.3213 -62.3574
c-15.6162 -20.6953 -30.7461 -41.7764 -47.4854 -61.5986c-36.3252 -43.0146 -85.2344 -67.2656 -130.359 -19.9736c-38.4355 40.2812 -43.9727 107.01 -39.0654 159.409c3.36914 35.9893 13.3701 103.189 64.79 81.4424
c17.2539 -7.29688 15.3936 -25.7314 6.21582 -38.0215c-9.88574 -23.5352 -4.15527 -69.4756 -0.943359 -93.8193c1.55957 -11.8535 3.54785 -24.5078 7.87598 -35.7822c8.61328 -22.4336 15.5381 -28.0781 35.2744 -13.2275c20.9023 15.7236 36.2607 44.209 52.2637 64.876
c16.918 21.8467 34.1221 43.6221 54.5459 62.3359c33.3496 30.5674 89.0469 48.4941 108.604 -6.57422c8.88477 -25.0088 8.80566 -54.6748 12.0605 -80.9639c4.58496 -37.0479 8.60547 -74.1533 12.3398 -111.287zM110.194 366.315
c-31.29 -1.93848 -31.3379 40.4248 -6.79395 50.2256c49.917 19.9082 106.294 28.5137 158.629 40.2744c37.792 8.49121 53.7803 -49.5459 16.002 -58.0371c-54.7246 -12.2969 -111.71 -28.9863 -167.837 -32.4629z" />
    <glyph glyph-name="OE" unicode="&#x152;" horiz-adv-x="1456" 
d="M1504.99 -131.317c31.1396 16.0312 57.4219 -28.4785 27.5127 -47.0488c-107.425 -66.6855 -222.947 -115.437 -344.965 -148.65c-101.802 -27.7129 -227.983 -62.7363 -331.967 -28.793c-43.958 14.3428 -84.3398 43.0068 -97.3594 89.5693
c-13.5127 48.3154 2.86133 97.8252 28.9785 138.687c67.1221 105.007 163.466 182.008 267.464 248.278c-71.4707 -14.2139 -143.442 -22.5479 -215.929 -13.0117c-45.8545 6.03027 -93.5898 19.5645 -127.998 51.5908
c-27.9062 -82.1299 -68.8672 -159.889 -116.839 -227.168c-53.8447 -75.5127 -120.702 -147.893 -212.11 -175.727c-92.252 -28.085 -187.358 0.415039 -246.425 76.7217c-61.3916 79.3115 -70.0049 182.974 -65.3838 279.883
c5.25781 110.143 28.1631 218.912 68.1582 321.637c17.2109 44.2158 89.0186 25.252 71.9434 -19.8301c-35.1094 -92.7168 -58.251 -189.383 -64.3818 -288.488c-5.42285 -87.7021 -5.00098 -191.636 59.0879 -259.945c133.485 -142.27 301.822 55.4824 367.263 166.019
c81.7217 138.042 136.689 317.159 92.5166 476.525c-17.5186 63.1943 -53.6797 126.703 -111.358 161.068c-69.9189 41.6553 -161.227 30.6035 -234.765 4.62891c-72.6582 -25.667 -137.405 -74.4326 -181.793 -137.448
c-22.4053 -31.8047 -40.3037 -66.6641 -52.3789 -103.655c-10.5303 -32.2695 -25.4814 -74.8262 -6.36035 -106.173c21.1387 -34.6729 -31.9473 -64.8535 -54.002 -31.5684c-53.0791 80.1406 11.5098 210.765 60.2178 278.651
c59.8105 83.3535 146.204 144.452 245.23 171.965c90.3281 25.1016 194.799 25.3018 273.853 -30.7529c66.2061 -46.9561 109.492 -120.888 129.809 -198.568c7.125 -27.2617 11.7822 -54.9961 14.3506 -82.9668c50.168 60.8984 115.53 111.903 177.916 153.845
c101.902 68.5098 223.534 127.748 346.589 142.563c51.291 6.17383 112.489 6.33789 154.194 -28.9717c45.2314 -38.293 39.0361 -96.4443 24.5498 -147.936c-12.54 -44.5732 -81.3574 -25.6445 -69.3613 19.1221c7.3252 27.3408 19.0928 62.9365 -12.0537 79.1533
c-22.3906 11.6533 -54.6172 8.86328 -78.46 6.77441c-62.3145 -5.45801 -123.899 -28.2637 -180.455 -53.873c-107.475 -48.6582 -211.015 -115.665 -290.262 -203.875c-33.4639 -37.248 -87.0156 -99.8271 -75.7559 -155.031
c12.1035 -59.3242 98.9189 -65.9199 146.254 -67.0791c129.586 -3.16895 252.104 47.6572 378.951 65.6484c38.1641 5.41504 68.9102 -46.5908 28.4922 -67.5791c-97.209 -50.4893 -194.583 -105.521 -281.728 -172.186
c-42.2129 -32.291 -81.7217 -68.252 -117.139 -107.904c-30.6172 -34.2793 -86.6436 -92.6738 -71.4062 -143.872c18.2129 -61.2061 117.562 -54.5391 166.334 -49.3174c56.9492 6.10156 113.913 18.5127 169.317 32.7695c118.284 30.4385 233.127 76.4502 341.653 132.319z
" />
    <glyph glyph-name="oe" unicode="&#x153;" horiz-adv-x="590" 
d="M537.869 174.854c12.1035 26.6045 58.0098 7.02441 47.2012 -19.9014c-33.8145 -84.1543 -124.729 -189.483 -226.709 -141.526c-27.0117 12.7051 -45.4746 32.2988 -57.3281 55.6982c-32.1055 -41.0254 -92.5176 -61.2627 -141.941 -68.252
c-75.5342 -10.6875 -168.229 14.3926 -150.997 108.834c13.9277 76.3066 77.7949 141.118 134.101 189.397c3.12598 2.67578 6.38086 4.67188 9.67871 6.0957c5.3584 7.92578 14.3643 13.1768 27.2979 12.2969c49.252 -3.32617 100.229 -2.99023 149.48 -9.58594
c22.04 35.5742 53.9658 69.2891 94.5332 79.5684c44.3086 11.2236 90.1553 -16.375 104.019 -59.375c32.2549 -100.078 -85.1064 -181.771 -175.513 -161.62c-3.43359 -45.7822 6.72461 -98.9619 58.9883 -99.9561c58.0371 -1.10156 105.822 61.3848 127.189 108.326z
M452.822 319.341c-35.5312 17.3398 -69.6113 -46.4922 -85.8574 -87.5674c21.9258 -0.600586 42.8926 1.5459 62.665 13.585c16.4961 10.0439 57.4219 57.2715 23.1924 73.9824zM149.854 69.1377c35.1094 4.97852 114.471 23.7344 103.876 74.3096
c-7.58301 36.2109 -43.3789 71.0625 -74.6758 95.8711c-32.0762 -27.1973 -61.0049 -58.5723 -82.2725 -94.9551c-8.34863 -14.2852 -30.5176 -47.7852 -20.8457 -65.0107c10.6807 -19.0352 56.4707 -12.6904 73.918 -10.2148zM292.481 220.605
c1.94531 7.9043 4.15625 15.6592 6.60254 23.1914c-8.19043 -0.22168 -16.4023 -0.300781 -24.6289 -0.214844c6.43066 -7.39648 12.4971 -15.0723 18.0264 -22.9766z" />
    </font>
</defs>
</svg>
